Гадание при свечах | Anna Geislerová | Alın Yazım

Bay City All Stars - Rock & Roll Diner (1996)

New Download Links
Speed
 kbps
 kbps
 kbps

Bay City All Stars - Rock & Roll Diner (1996)
EAC Rip | FLAC (Img) + Cue + Log ~ 371 Mb | MP3 CBR320 ~ 143 Mb
Scans Included (JPG, 300 dpi) | RAR 5% Recovery
Rock & Roll, Pop Rock, R&B | Menus And Music #MM 10

Jukebox hits of the fifties and sixties set the stage for good times. Fire up the stove, turn up the music, and have some fun! Liner notes include diner recipes.


Track List:

01. Shake, Rattle And Roll [03:18]
02. My Guy [03:02]
03. Mustang Sally [04:23]
04. Heatwave [03:24]
05. My Girl [03:13]
06. Searchin' [03:01]
07. Johnny B. Goode [03:10]
08. Blueberry Hill [03:18]
09. Please Mr. Postman [03:11]
10. Green Onions [03:11]
11. But It's Alright [03:02]
12. Where Did Our Love Go? [02:50]
13. Shop Around [02:59]
14. Tutti Frutti [02:42]
15. Rock And Roll Music [02:41]
16. You Send Me [03:20]
17. Ooo Baby Baby [03:35]

EAC Log
Exact Audio Copy V1.0 beta 3 from 29. August 2011

EAC extraction logfile from 22. May 2015, 17:54

Bay City All Stars / Rock And Roll Diner

Used drive : PIONEER BD-RW BDR-TD03 Adapter: 0 ID: 1

Read mode : Secure
Utilize accurate stream : Yes
Defeat audio cache : Yes
Make use of C2 pointers : No

Read offset correction : 667
Overread into Lead-In and Lead-Out : No
Fill up missing offset samples with silence : Yes
Delete leading and trailing silent blocks : No
Null samples used in CRC calculations : Yes
Used interface : Native Win32 interface for Win NT & 2000

Used output format : User Defined Encoder
Selected bitrate : 768 kBit/s
Quality : High
Add ID3 tag : No
Command line compressor : C:Program Files (x86)Exact Audio CopyFLACFLAC.EXE
Additional command line options : -6 -V -T "ARTIST=%artist%" -T "TITLE=%title%" -T "ALBUM=%albumtitle%" -T "DATE=%year%" -T "TRACKNUMBER=%tracknr%" -T "GENRE=%genre%" -T "COMMENT=%comment%" -T "BAND=%albuminterpret%" -T "ALBUMARTIST=%albuminterpret%" -T "COMPOSER=%composer%" %haslyrics%--tag-from-file=LYRICS="%lyricsfile%"%haslyrics% -T "DISCNUMBER=%cdnumber%" -T "TOTALDISCS=%totalcds%" -T "TOTALTRACKS=%numtracks%" %hascover%--picture="%coverfile%"%hascover% %source% -o %dest% TOC of the extracted CD

Track | Start | Length | Start sector | End sector
---------------------------------------------------------
1 | 0:00.32 | 3:17.28 | 32 | 14834
2 | 3:17.60 | 3:01.60 | 14835 | 28469
3 | 6:19.45 | 4:22.52 | 28470 | 48171
4 | 10:42.22 | 3:23.18 | 48172 | 63414
5 | 14:05.40 | 3:12.05 | 63415 | 77819
6 | 17:17.45 | 3:00.07 | 77820 | 91326
7 | 20:17.52 | 3:09.55 | 91327 | 105556
8 | 23:27.32 | 3:17.20 | 105557 | 120351
9 | 26:44.52 | 3:10.18 | 120352 | 134619
10 | 29:54.70 | 3:10.70 | 134620 | 148939
11 | 33:05.65 | 3:01.47 | 148940 | 162561
12 | 36:07.37 | 2:49.68 | 162562 | 175304
13 | 38:57.30 | 2:58.25 | 175305 | 188679
14 | 41:55.55 | 2:41.50 | 188680 | 200804
15 | 44:37.30 | 2:40.02 | 200805 | 212806
16 | 47:17.32 | 3:19.58 | 212807 | 227789
17 | 50:37.15 | 3:34.25 | 227790 | 243864 Range status and errors

Selected range

Filename C:UsersDerisDesktopR&RDinnerBay City All Stars - Rock And Roll Diner.wav

Peak level 100.0 %
Extraction speed 4.7 X
Range quality 100.0 %
Test CRC D9BC923A
Copy CRC D9BC923A
Copy OK

No errors occurred


AccurateRip summary

Track 1 cannot be verified as accurate (confidence 1) [242C39DE], AccurateRip returned [7D926ED0] (AR v2)
Track 2 cannot be verified as accurate (confidence 1) [820FA632], AccurateRip returned [BC97B481] (AR v2)
Track 3 cannot be verified as accurate (confidence 1) [1E184764], AccurateRip returned [BA38586F] (AR v2)
Track 4 cannot be verified as accurate (confidence 1) [4CDC5F78], AccurateRip returned [FD1E1453] (AR v2)
Track 5 cannot be verified as accurate (confidence 1) [96740418], AccurateRip returned [96FBD6D2] (AR v2)
Track 6 cannot be verified as accurate (confidence 1) [CE4C7FBB], AccurateRip returned [C7F05060] (AR v2)
Track 7 cannot be verified as accurate (confidence 1) [655D9EAC], AccurateRip returned [BBD03911] (AR v2)
Track 8 cannot be verified as accurate (confidence 1) [CE7BAFF5], AccurateRip returned [471CA427] (AR v2)
Track 9 cannot be verified as accurate (confidence 1) [56717C22], AccurateRip returned [75E30709] (AR v2)
Track 10 cannot be verified as accurate (confidence 1) [CDB68764], AccurateRip returned [09FE1082] (AR v2)
Track 11 cannot be verified as accurate (confidence 1) [71606FC2], AccurateRip returned [F744D4C7] (AR v2)
Track 12 cannot be verified as accurate (confidence 1) [FA35DFB9], AccurateRip returned [CEB327D4] (AR v2)
Track 13 cannot be verified as accurate (confidence 1) [1A6A1101], AccurateRip returned [31AF7AF8] (AR v2)
Track 14 cannot be verified as accurate (confidence 1) [4B71DBBD], AccurateRip returned [171F29CF] (AR v2)
Track 15 cannot be verified as accurate (confidence 1) [16638C73], AccurateRip returned [8444D1CF] (AR v2)
Track 16 cannot be verified as accurate (confidence 1) [34953807], AccurateRip returned [92739C7F] (AR v2)
Track 17 cannot be verified as accurate (confidence 1) [70938027], AccurateRip returned [D2C828EA] (AR v2)

No tracks could be verified as accurate
You may have a different pressing from the one(s) in the database

End of status report

---- CUETools DB Plugin V2.1.3

[CTDB TOCID: UEejU8eTTNHN.0C4LZbDA6.hgDg-] found, Submit result: discs with pregaps not supported in this protocol version
[2447add5] (1/1) Differs in 0 samples @
You can use CUETools to repair this rip. ==== Log checksum 6CDF6B9D0901E0D4A9D9D8C68F2F6B29F0EA5ECBAEC2E2C66459D0D6CD41818A ====

DR Log
foobar2000 1.2.6 / Dynamic Range Meter 1.1.1
log date: 2015-05-24 12:41:02

--------------------------------------------------------------------------------
Analyzed: Al Lewis, Vincent Rose, Larry Stock / Rock And Roll Diner (1)
Berry Gordy, Jr., William Smokey Robison / Rock And Roll Diner (2)
--------------------------------------------------------------------------------

DR Peak RMS Duration Track
--------------------------------------------------------------------------------
DR12 -0.01 dB -13.10 dB 3:17 08-Blueberry Hill
DR11 0.00 dB -12.43 dB 2:58 13-Shop Around
--------------------------------------------------------------------------------

Number of tracks: 2
Official DR value: DR11

Samplerate: 44100 Hz
Channels: 2
Bits per sample: 16
Bitrate: 881 kbps
Codec: FLAC
================================================================================

--------------------------------------------------------------------------------
Analyzed: Bonny Rice / Rock And Roll Diner (1)
Booker T. Jones, Stephen Cropper, Al Jackson, Lewis Steinberg / Rock And Roll Diner (2)
--------------------------------------------------------------------------------

DR Peak RMS Duration Track
--------------------------------------------------------------------------------
DR10 0.00 dB -11.26 dB 4:23 03-Mustang Sally
DR11 -0.22 dB -12.78 dB 3:11 10-Green Onions
--------------------------------------------------------------------------------

Number of tracks: 2
Official DR value: DR10

Samplerate: 44100 Hz
Channels: 2
Bits per sample: 16
Bitrate: 881 kbps
Codec: FLAC
================================================================================

--------------------------------------------------------------------------------
Analyzed: Charles Calhoun / Rock And Roll Diner (1)
Chuck Berry / Rock And Roll Diner (2-3)
--------------------------------------------------------------------------------

DR Peak RMS Duration Track
--------------------------------------------------------------------------------
DR10 0.00 dB -10.76 dB 3:17 01-Shake, Rattle And Roll
DR9 0.00 dB -9.99 dB 3:10 07-Johnny B. Goode
DR11 0.00 dB -12.31 dB 2:40 15-Rock And Roll Music
--------------------------------------------------------------------------------

Number of tracks: 3
Official DR value: DR10

Samplerate: 44100 Hz
Channels: 2
Bits per sample: 16
Bitrate: 881 kbps
Codec: FLAC
================================================================================

--------------------------------------------------------------------------------
Statistics for: 12-Where Did Our Love Go?
Number of samples: 7492884
Duration: 2:50
--------------------------------------------------------------------------------

Left Right

Peak Value: 0.00 dB --- 0.00 dB
Avg RMS: -9.85 dB --- -9.84 dB
DR channel: 8.57 dB --- 8.54 dB
--------------------------------------------------------------------------------

Official DR Value: DR9

Samplerate: 44100 Hz
Channels: 2
Bits per sample: 16
Bitrate: 881 kbps
Codec: FLAC
================================================================================
--------------------------------------------------------------------------------
Analyzed: Eddie Holland, Lamont Dozier, Brian Holland / Rock And Roll Diner (1)
Holland, Gorman, Dobbins, Garrett, Batemam / Rock And Roll Diner (2)
Jerome Jackson, Pierre Tubbs / Rock And Roll Diner (3)
--------------------------------------------------------------------------------

DR Peak RMS Duration Track
--------------------------------------------------------------------------------
DR9 -0.61 dB -10.60 dB 3:23 04-Heatwave
DR11 -0.13 dB -12.28 dB 3:10 09-Please Mr. Postman
DR9 0.00 dB -10.53 dB 3:02 11-But It's Alright
--------------------------------------------------------------------------------

Number of tracks: 3
Official DR value: DR9

Samplerate: 44100 Hz
Channels: 2
Bits per sample: 16
Bitrate: 881 kbps
Codec: FLAC
================================================================================

--------------------------------------------------------------------------------
Analyzed: Jerry Leiber, Mike Stoller / Rock And Roll Diner (1)
Richard Penniman, Dorothy LaBostrie / Rock And Roll Diner (2)
Sam Cooke / Rock And Roll Diner (3)
--------------------------------------------------------------------------------

DR Peak RMS Duration Track
--------------------------------------------------------------------------------
DR11 0.00 dB -12.82 dB 3:00 06-Searchin'
DR11 0.00 dB -12.66 dB 2:42 14-Tutti Frutti
DR11 0.00 dB -12.09 dB 3:20 16-You Send Me
--------------------------------------------------------------------------------

Number of tracks: 3
Official DR value: DR11

Samplerate: 44100 Hz
Channels: 2
Bits per sample: 16
Bitrate: 881 kbps
Codec: FLAC
================================================================================

--------------------------------------------------------------------------------
Analyzed: William Smokey Robinson, Ronald White / Rock And Roll Diner (1)
William Smokey Robinson, Warren Moore / Rock And Roll Diner (2)
--------------------------------------------------------------------------------

DR Peak RMS Duration Track
--------------------------------------------------------------------------------
DR10 0.00 dB -12.08 dB 3:12 05-My Girl
DR10 0.00 dB -11.73 dB 3:34 17-Ooo Baby Baby
--------------------------------------------------------------------------------

Number of tracks: 2
Official DR value: DR10

Samplerate: 44100 Hz
Channels: 2
Bits per sample: 16
Bitrate: 881 kbps
Codec: FLAC
================================================================================

--------------------------------------------------------------------------------
Statistics for: 02-My Guy
Number of samples: 8017380
Duration: 3:02
--------------------------------------------------------------------------------

Left Right

Peak Value: 0.00 dB --- 0.00 dB
Avg RMS: -12.16 dB --- -12.04 dB
DR channel: 10.79 dB --- 10.60 dB
--------------------------------------------------------------------------------

Official DR Value: DR11

Samplerate: 44100 Hz
Channels: 2
Bits per sample: 16
Bitrate: 881 kbps
Codec: FLAC
================================================================================

CUETools Log
[CUETools log; Date: 24.05.2015 12:40:31; Version: 2.1.5]
Pregap length 00:00:32.
[CTDB TOCID: UEejU8eTTNHN.0C4LZbDA6.hgDg-] found.
Track | CTDB Status
1 | (1/1) Accurately ripped
2 | (1/1) Accurately ripped
3 | (1/1) Accurately ripped
4 | (1/1) Accurately ripped
5 | (1/1) Accurately ripped
6 | (1/1) Accurately ripped
7 | (1/1) Accurately ripped
8 | (1/1) Accurately ripped
9 | (1/1) Accurately ripped
10 | (1/1) Accurately ripped
11 | (1/1) Accurately ripped
12 | (1/1) Accurately ripped
13 | (1/1) Accurately ripped
14 | (1/1) Accurately ripped
15 | (1/1) Accurately ripped
16 | (1/1) Accurately ripped
17 | (1/1) Accurately ripped
[AccurateRip ID: 002242ea-01ae32b8-170cb311] found.
Track [ CRC | V2 ] Status
01 [7141cea2|242c39de] (0+0/3) No match
02 [9adf5b05|820fa632] (0+0/3) No match
03 [1365e641|1e184764] (0+0/3) No match
04 [96c0557b|4cdc5f78] (0+0/3) No match
05 [a3294160|96740418] (0+0/3) No match
06 [05bfe2f8|ce4c7fbb] (0+0/3) No match
07 [444bcfd4|655d9eac] (0+0/3) No match
08 [ab23d608|ce7baff5] (0+0/3) No match
09 [2ed71e45|56717c22] (0+0/3) No match
10 [2c7d54e8|cdb68764] (0+0/3) No match
11 [bd99c9e9|71606fc2] (0+0/3) No match
12 [f78eaf72|fa35dfb9] (0+0/3) No match
13 [10ce1474|1a6a1101] (0+0/3) No match
14 [f707e593|4b71dbbd] (0+0/3) No match
15 [c6519ced|16638c73] (0+0/3) No match
16 [17684ced|34953807] (0+0/3) No match
17 [84476b04|70938027] (0+0/3) No match
Offsetted by -10:
01 [7d926ed0] (1/3) Accurately ripped
02 [bc97b481] (1/3) Accurately ripped
03 [ba38586f] (1/3) Accurately ripped
04 [fd1e1453] (1/3) Accurately ripped
05 [96fbd6d2] (1/3) Accurately ripped
06 [c7f05060] (1/3) Accurately ripped
07 [bbd03911] (1/3) Accurately ripped
08 [471ca427] (1/3) Accurately ripped
09 [75e30709] (1/3) Accurately ripped
10 [09fe1082] (1/3) Accurately ripped
11 [f744d4c7] (1/3) Accurately ripped
12 [ceb327d4] (1/3) Accurately ripped
13 [31af7af8] (1/3) Accurately ripped
14 [171f29cf] (1/3) Accurately ripped
15 [8444d1cf] (1/3) Accurately ripped
16 [92739c7f] (1/3) Accurately ripped
17 [d2c828ea] (1/3) Accurately ripped
Offsetted by 654:
01 [1f5f4948] (1/3) Accurately ripped
02 [5d43b1f1] (1/3) Accurately ripped
03 [2bd15b37] (1/3) Accurately ripped
04 [86385a63] (1/3) Accurately ripped
05 [bf9046da] (1/3) Accurately ripped
06 [69c72300] (1/3) Accurately ripped
07 [8923709a] (1/3) Accurately ripped
08 [f5bbdd8e] (1/3) Accurately ripped
09 [0865da99] (1/3) Accurately ripped
10 [9633ce2a] (1/3) Accurately ripped
11 [5249704f] (1/3) Accurately ripped
12 [4aa8814c] (1/3) Accurately ripped
13 [10d27d88] (1/3) Accurately ripped
14 [f77caa3f] (1/3) Accurately ripped
15 [3f964d97] (1/3) Accurately ripped
16 [41eaf907] (0/3) No match (V2 was not tested)
17 [76308142] (0/3) No match

Track Peak [ CRC32 ] [W/O NULL] [ LOG ]
-- 100,0 [D9BC923A] [7CEF6C4C] CRC32
01 100,0 [1AE5D384] [9ADC9CD3]
02 100,0 [97588064] [FC4A8418]
03 100,0 [386DEAE3] [7E6BC415]
04 93,2 [BDF7226F] [81F6E838]
05 100,0 [A187308B] [CABD6FED]
06 100,0 [930C1A7A] [E2E6FC18]
07 100,0 [32B18327] [BF1E145D]
08 99,8 [859AF07A] [D27F9FD1]
09 98,4 [B00E7DA3] [0CB3AF49]
10 97,4 [A52F74C8] [95C9002D]
11 100,0 [1A5DFB2F] [BADE00BC]
12 100,0 [500B5EA8] [6A317495]
13 100,0 [52BB5A7A] [4CA98C9C]
14 100,0 [139B192F] [82D8DDB9]
15 100,0 [E60C2339] [BDA1DEB1]
16 100,0 [E2BEC05D] [552C1886]
17 100,0 [F1D7D226] [7798E769]


All thanks go to Boris1
Download:

Uploadable: FLAC-part 1 | FLAC-part 2 | mp3



Uk Top 100 Rock And Roll | Rock N Roll Dvd | Best Of Rock N Roll | Rem Rock N Roll | 80S Rock And Roll | The City Hall 1996 | Rock Roll 50 | Kid Rock Rock And Roll Jesus | Stars Of Rock N Roll | The Rock 1996 Sub
Bay City All Stars - Rock & Roll Diner (1996) Torrent Download with keygen, crack, serial, dvdrip, hdrip, HD, 720p, 1024p, 2016, 2015