Stationeers v0 1 1095 5529 rar | Chris Sullivan | Love til the End of Summer

B.B. King - Sings Spirituals (1960) Expanded Remastered 2006

New Download Links
Speed
 kbps
 kbps
 kbps

B.B. King - Sings Spirituals (1960) Expanded, Remastered 2006
EAC | FLAC | Tracks (Cue&Log) ~ 348 Mb (incl 5%) | Mp3 (CBR320) ~ 167 Mb (incl 5%) | Scans included
Genre: Black Gospel, Spirituals, Blues Gospel | Label: Ace | # CDCHM 1093 | Time: 00:50:21

The Spirituals as B.B. King's 4th Crown LP, recorded in 1959 as a dedicated gospel album. The song selection literally represents a greatest hits package of the time, ranging from classics such as 'Precious Lord' and 'Swing Low Sweet Chariot' to no less than 6 staples from the repertoire of the highly respected 5 Blind Boys of Mississippi. Includes 8 bonus tracks.


For a good part of the '50s B.B. King recorded for the Bihari Brothers' RPM and Kent labels, and the brothers would, in turn, issue collections of these singles on LP as part of their discount Crown Records series. B.B. King Sings Spirituals originally appeared as a Crown LP in 1959, but it was less a collection of singles than a true labor of love for King, who took it as an opportunity to return to the Baptist and Pentecostal church music of his childhood. It's easy to forget that King isn't just a blues player with a particularly distinctive guitar style, he is also a singer, and in the '50s he really worked more to the R&B side of the field than to the blues half, and, as these tracks show, his roots were always deep in gospel. The instrumentation here is sparse and appropriate to the spiritual material, just organ, piano, bass, and drums with tons of handclapping and choral support, and absolutely no guitar. King's singing here is a bit of a revelation to those who only know him for his blues work, as he breaks loose and sings vigorously on numbers like the rollicking "Ole Time Religion" and a stomping "Army of the Lord." This is B.B. King, one supposes, before the thrill was gone. He sounds absolutely jubilant. [This Ace reissue adds in a generous eight bonus tracks of period singles and alternate versions, some of them decidedly secular, including the stunning "I Am," which shows unequivocally that King is an explosively expressive singer when he chooses to be, and a curious horn-driven version of Merle Travis' "Sixteen Tons" that was released in 1955 as a single at the same time as Tennessee Ernie Ford's hit version of the song.]

Review by Steve Leggett, Allmusic.com


B.B. King at Allmusic
B.B. King Website
B.B. King at Wiki

Tracklist:

01. Precious Lord (03:23)
02. Save A Seat For Me (03:04)
03. Ole Time Religion (02:27)
04. Swing Low, Sweet Chariot (02:08)
05. Servant's Prayer (03:03)
06. Jesus Gave Me Water (03:04)
07. I Never Heard A Man (02:36)
08. Army Of The Lord (03:06)
09. I Am Willing To Run All The Way (03:38)
10. I'm Working On A Building (02:49)
11. A Lonely Lover's Plea (02:46)
12. I Am (02:19)
13. The Key To My Kingdom (02:34)
14. Story From My Heart And Soul (Take 1) (03:01)
15. In The Middle Of An Island (Take 7) (02:09)
16. Sixteen Tons (02:34)
17. Precious Lord (with Overdubs) (03:24)
18. Swing Low, Sweet Chariot (with Overdubs) (02:07)


EAC log
Exact Audio Copy V0.99 prebeta 5 from 4. May 2009

EAC extraction logfile from 13. February 2010, 0:19

B.B.King / B.B.King Sings Spirituals

Used drive : HL-DT-STDVD-RAM GH22NP20 Adapter: 0 ID: 0

Read mode : Secure
Utilize accurate stream : Yes
Defeat audio cache : Yes
Make use of C2 pointers : No

Read offset correction : 102
Overread into Lead-In and Lead-Out : No
Fill up missing offset samples with silence : Yes
Delete leading and trailing silent blocks : No
Null samples used in CRC calculations : Yes
Used interface : Native Win32 interface for Win NT & 2000
Gap handling : Appended to previous track

Used output format : User Defined Encoder
Selected bitrate : 1024 kBit/s
Quality : High
Add ID3 tag : No
Command line compressor : C:Program FilesFLACflac.exe
Additional command line options : -8 -V -T "ARTIST=%a" -T "TITLE=%t" -T "ALBUM=%g" -T "DATE=%y" -T "TRACKNUMBER=%n" -T "GENRE=%m" -T "COMMENT=EAC FLAC -8" %s TOC of the extracted CD

Track | Start | Length | Start sector | End sector
---------------------------------------------------------
1 | 0:00.00 | 3:23.48 | 0 | 15272
2 | 3:23.48 | 3:04.61 | 15273 | 29133
3 | 6:28.34 | 2:27.43 | 29134 | 40201
4 | 8:56.02 | 2:08.61 | 40202 | 49862
5 | 11:04.63 | 3:03.00 | 49863 | 63587
6 | 14:07.63 | 3:04.19 | 63588 | 77406
7 | 17:12.07 | 2:36.22 | 77407 | 89128
8 | 19:48.29 | 3:06.68 | 89129 | 103146
9 | 22:55.22 | 3:38.70 | 103147 | 119566
10 | 26:34.17 | 2:49.05 | 119567 | 132246
11 | 29:23.22 | 2:46.73 | 132247 | 144769
12 | 32:10.20 | 2:19.70 | 144770 | 155264
13 | 34:30.15 | 2:34.32 | 155265 | 166846
14 | 37:04.47 | 3:01.27 | 166847 | 180448
15 | 40:05.74 | 2:09.33 | 180449 | 190156
16 | 42:15.32 | 2:34.35 | 190157 | 201741
17 | 44:49.67 | 3:24.28 | 201742 | 217069
18 | 48:14.20 | 2:07.07 | 217070 | 226601 Track 1

Filename C:1 - Precious Lord.wav

Pre-gap length 0:00:02.00

Peak level 96.4 %
Track quality 100.0 %
Test CRC E195F5EF
Copy CRC E195F5EF
Track not present in AccurateRip database
Copy OK

Track 2

Filename C:2 - Save A Seat For Me.wav

Pre-gap length 0:00:03.59

Peak level 97.2 %
Track quality 100.0 %
Test CRC D812C658
Copy CRC D812C658
Track not present in AccurateRip database
Copy OK

Track 3

Filename C:3 - Ole Time Religion.wav

Pre-gap length 0:00:03.19

Peak level 97.3 %
Track quality 100.0 %
Test CRC A68A5C17
Copy CRC A68A5C17
Track not present in AccurateRip database
Copy OK

Track 4

Filename C:4 - Swing Low, Sweet Chariot.wav

Pre-gap length 0:00:02.25

Peak level 86.7 %
Track quality 99.9 %
Test CRC 93E94D97
Copy CRC 93E94D97
Track not present in AccurateRip database
Copy OK

Track 5

Filename C:5 - Servant's Prayer.wav

Pre-gap length 0:00:03.09

Peak level 94.7 %
Track quality 100.0 %
Test CRC 65713CBF
Copy CRC 65713CBF
Track not present in AccurateRip database
Copy OK

Track 6

Filename C:6 - Jesus Gave Me Water.wav

Pre-gap length 0:00:03.09

Peak level 97.8 %
Track quality 100.0 %
Test CRC 01F8F2F6
Copy CRC 01F8F2F6
Track not present in AccurateRip database
Copy OK

Track 7

Filename C:7 - I Never Heard A Man.wav

Pre-gap length 0:00:03.72

Peak level 97.2 %
Track quality 100.0 %
Test CRC 6290BD69
Copy CRC 6290BD69
Track not present in AccurateRip database
Copy OK

Track 8

Filename C:8 - Army Of The Lord.wav

Pre-gap length 0:00:02.70

Peak level 91.3 %
Track quality 100.0 %
Test CRC 9B32046C
Copy CRC 9B32046C
Track not present in AccurateRip database
Copy OK

Track 9

Filename C:9 - I Am Willing To Run All The Way.wav

Pre-gap length 0:00:03.21

Peak level 95.9 %
Track quality 100.0 %
Test CRC 7D58ADEB
Copy CRC 7D58ADEB
Track not present in AccurateRip database
Copy OK

Track 10

Filename C:10 - I'm Working On A Building.wav

Pre-gap length 0:00:03.62

Peak level 97.2 %
Track quality 100.0 %
Test CRC 0900DA0B
Copy CRC 0900DA0B
Track not present in AccurateRip database
Copy OK

Track 11

Filename C:11 - A Lonely Lover's Plea.wav

Pre-gap length 0:00:03.29

Peak level 94.1 %
Track quality 100.0 %
Test CRC C526C241
Copy CRC C526C241
Track not present in AccurateRip database
Copy OK

Track 12

Filename C:12 - I Am.wav

Pre-gap length 0:00:02.53

Peak level 95.6 %
Track quality 100.0 %
Test CRC 8FC0A711
Copy CRC 8FC0A711
Track not present in AccurateRip database
Copy OK

Track 13

Filename C:13 - The Key To My Kingdom.wav

Pre-gap length 0:00:02.45

Peak level 97.3 %
Track quality 100.0 %
Test CRC A1EE4797
Copy CRC A1EE4797
Track not present in AccurateRip database
Copy OK

Track 14

Filename C:14 - Story From My Heart And Soul (Take 1).wav

Pre-gap length 0:00:03.29

Peak level 97.3 %
Track quality 100.0 %
Test CRC 7E703515
Copy CRC 7E703515
Track not present in AccurateRip database
Copy OK

Track 15

Filename C:15 - In The Middle Of An Island (Take 7).wav

Pre-gap length 0:00:03.15

Peak level 97.3 %
Track quality 100.0 %
Test CRC 612AE6E6
Copy CRC 612AE6E6
Track not present in AccurateRip database
Copy OK

Track 16

Filename C:16 - Sixteen Tons.wav

Pre-gap length 0:00:02.60

Peak level 97.3 %
Track quality 100.0 %
Test CRC 04158732
Copy CRC 04158732
Track not present in AccurateRip database
Copy OK

Track 17

Filename C:17 - Precious Lord (with Overdubs).wav

Pre-gap length 0:00:03.18

Peak level 91.8 %
Track quality 100.0 %
Test CRC FFA5C40D
Copy CRC FFA5C40D
Track not present in AccurateRip database
Copy OK

Track 18

Filename C:18 - Swing Low, Sweet Chariot (with Overdubs).wav

Pre-gap length 0:00:03.22

Peak level 97.3 %
Track quality 100.0 %
Test CRC 596BD02D
Copy CRC 596BD02D
Track not present in AccurateRip database
Copy OK None of the tracks are present in the AccurateRip database

No errors occurred

End of status report

AR log
[CUETools log; Date: 23.05.2015 14:33:35; Version: 2.1.5]
[CTDB TOCID: R0Tbyr5KV5w3zyjb6D4G2rV.oEU-] found.
Track | CTDB Status
1 | (2/2) Accurately ripped
2 | (2/2) Accurately ripped
3 | (2/2) Accurately ripped
4 | (2/2) Accurately ripped
5 | (2/2) Accurately ripped
6 | (2/2) Accurately ripped
7 | (2/2) Accurately ripped
8 | (2/2) Accurately ripped
9 | (2/2) Accurately ripped
10 | (2/2) Accurately ripped
11 | (2/2) Accurately ripped
12 | (2/2) Accurately ripped
13 | (2/2) Accurately ripped
14 | (2/2) Accurately ripped
15 | (2/2) Accurately ripped
16 | (2/2) Accurately ripped
17 | (2/2) Accurately ripped
18 | (2/2) Accurately ripped
[AccurateRip ID: 00219b5b-01bdf535-090bcd12] found.
Track [ CRC | V2 ] Status
01 [f58deccc|d3994b67] (3+0/6) Accurately ripped
02 [e8e00ff8|d844f271] (3+0/6) Accurately ripped
03 [c4bc9a5f|e286a6ae] (3+0/6) Accurately ripped
04 [7df0cbad|d0d945ad] (3+0/6) Accurately ripped
05 [313ad659|add692db] (3+0/6) Accurately ripped
06 [6f4e57b8|15a15e4a] (3+0/6) Accurately ripped
07 [43d5fa5b|e6638d78] (3+0/6) Accurately ripped
08 [7b027daa|08b79a6b] (3+0/6) Accurately ripped
09 [e2c78674|8dbf64e3] (3+0/6) Accurately ripped
10 [3d6f9ec5|d5137777] (3+0/6) Accurately ripped
11 [e50cc834|654cde56] (3+0/6) Accurately ripped
12 [77dfafd1|c3030e73] (3+0/6) Accurately ripped
13 [9fe5c1db|0edddeb7] (3+0/6) Accurately ripped
14 [bf439bb6|7d5254f3] (3+0/6) Accurately ripped
15 [d037269e|bb9ca4a8] (3+0/6) Accurately ripped
16 [86765969|7bb7ede3] (3+0/6) Accurately ripped
17 [51a34fe5|7f2434c5] (3+0/6) Accurately ripped
18 [73e4e0e4|b14e1922] (3+0/6) Accurately ripped
Offsetted by -30:
01 [bb6ef440] (0/6) No match (V2 was not tested)
02 [6b489422] (0/6) No match (V2 was not tested)
03 [e4111428] (0/6) No match (V2 was not tested)
04 [9cc9d665] (0/6) No match (V2 was not tested)
05 [9680bdc2] (0/6) No match (V2 was not tested)
06 [361181f9] (0/6) No match (V2 was not tested)
07 [1006d770] (0/6) No match (V2 was not tested)
08 [61eb87df] (0/6) No match (V2 was not tested)
09 [db864575] (0/6) No match (V2 was not tested)
10 [914836d8] (0/6) No match (V2 was not tested)
11 [d104e484] (0/6) No match (V2 was not tested)
12 [9957e82b] (0/6) No match (V2 was not tested)
13 [bdd74148] (0/6) No match (V2 was not tested)
14 [5b4c1804] (0/6) No match (V2 was not tested)
15 [71fa240d] (0/6) No match (V2 was not tested)
16 [61d84eee] (0/6) No match (V2 was not tested)
17 [42497040] (0/6) No match (V2 was not tested)
18 [dc4ab23e] (0/6) No match (V2 was not tested)

Track Peak [ CRC32 ] [W/O NULL] [ LOG ]
-- 97,8 [55098845] [23C7A1A6]
01 96,4 [E195F5EF] [C268EF23] CRC32
02 97,2 [D812C658] [DFD9E98A] CRC32
03 97,3 [A68A5C17] [9A843D5C] CRC32
04 86,7 [93E94D97] [69811CA8] CRC32
05 94,7 [65713CBF] [5B311583] CRC32
06 97,8 [01F8F2F6] [83C38EEE] CRC32
07 97,2 [6290BD69] [D80E88B3] CRC32
08 91,3 [9B32046C] [127F82A4] CRC32
09 95,9 [7D58ADEB] [A34A1884] CRC32
10 97,2 [0900DA0B] [12F84B26] CRC32
11 94,1 [C526C241] [3D5BD75B] CRC32
12 95,6 [8FC0A711] [767BE485] CRC32
13 97,3 [A1EE4797] [FFFE37AD] CRC32
14 97,3 [7E703515] [60B1D8A1] CRC32
15 97,3 [612AE6E6] [D9C4172F] CRC32
16 97,3 [04158732] [FE028FDA] CRC32
17 91,8 [FFA5C40D] [E606B145] CRC32
18 97,3 [596BD02D] [8D80418A] CRC32

DR log
foobar2000 1.3.8 / Dynamic Range Meter 1.1.1
log date: 2015-05-23 14:56:32

--------------------------------------------------------------------------------
Analyzed: B.B.King / B.B.King Sings Spirituals
--------------------------------------------------------------------------------

DR Peak RMS Duration Track
--------------------------------------------------------------------------------
DR8 -0.32 dB -10.83 dB 3:24 01-Precious Lord
DR8 -0.24 dB -10.56 dB 3:05 02-Save A Seat For Me
DR8 -0.23 dB -9.46 dB 2:28 03-Ole Time Religion
DR8 -1.24 dB -10.12 dB 2:09 04-Swing Low, Sweet Chariot
DR8 -0.47 dB -10.76 dB 3:03 05-Servant's Prayer
DR8 -0.19 dB -9.34 dB 3:04 06-Jesus Gave Me Water
DR8 -0.24 dB -10.02 dB 2:36 07-I Never Heard A Man
DR7 -0.78 dB -9.30 dB 3:07 08-Army Of The Lord
DR9 -0.36 dB -11.12 dB 3:39 09-I Am Willing To Run All The Way
DR8 -0.25 dB -9.58 dB 2:49 10-I'm Working On A Building
DR9 -0.53 dB -10.80 dB 2:47 11-A Lonely Lover's Plea
DR9 -0.39 dB -11.89 dB 2:20 12-I Am
DR10 -0.24 dB -11.24 dB 2:34 13-The Key To My Kingdom
DR8 -0.24 dB -11.32 dB 3:01 14-Story From My Heart And Soul (Take 1)
DR8 -0.23 dB -9.12 dB 2:09 15-In The Middle Of An Island (Take 7)
DR10 -0.24 dB -12.41 dB 2:34 16-Sixteen Tons
DR9 -0.74 dB -11.46 dB 3:24 17-Precious Lord (with Overdubs)
DR8 -0.23 dB -9.49 dB 2:07 18-Swing Low, Sweet Chariot (with Overdubs)
--------------------------------------------------------------------------------

Number of tracks: 18
Official DR value: DR8

Samplerate: 44100 Hz
Channels: 2
Bits per sample: 16
Bitrate: 985 kbps
Codec: FLAC
================================================================================







One Night With The King 2006 Is Safe 1 | Expanded Edition | The King Of Fighters 2006 Ps2 | Donna Summer Expanded | Ride Nowhere Expanded | In The Name Of King 2006 | King Of Fighters 2006 | One Night With The King 2006 Is Safe 1 | The King Of Fighter 2006 | The King Of Fighters 2006
B.B. King - Sings Spirituals (1960) Expanded Remastered 2006 Torrent Download with keygen, crack, serial, dvdrip, hdrip, HD, 720p, 1024p, 2016, 2015