Майкл Масини | Click and Clack's As the Wrench Turns | Once Upon a Time S07E01 720p HDTV x264-AVS

Ray Conniff - Another Somebody Done Somebody Wrong Song / Love Will Keep Us Together (2 LP in 1 CD 2004 ) Re Up

New Download Links
Speed
 kbps
 kbps
 kbps

Ray Conniff
Another Somebody Done Somebody Wrong Song / Love Will Keep Us Together (2 LP in 1 CD , 2004 )

EAC Rip | FLAC-Tracks+CUE+LOG | 1CD | Scans | 76 Min. | 473 MB
Label: Sony Music Collectables / Catalogue: COL-CD-7646 /
Easy Listening Pop / LP´s Originally Released in 1975

Whoever thought of putting together the 'oldies' albums , (under the brand name of 'Collectables'), as one joint collection in a cd, honestly needs to be awarded a prize. This is one of Ray Conniff's finest contributions to the music of the 70's era. The mellow, refreshing voices of the Ray Conniff Singers & the superb clarity of sound lend a special blend of irresistable charm to this CD.




The better of the 2 albums, on this selection, is undoubtedly the latter. As a child, I used to hum the songs like 'Please Mr. Please'; 'Midnight Blue'; 'Rhinestone Cowboy' & 'Love will keep us together' & now as an adult, when I hear this cd, I still can't help humming these songs, even if only in my mind.
If I had my way, I would honestly award this CD ten stars. It is true value for money & a 'must-have' in your music library.There is still some wonderful Conniff magic in this very collection of two of his successful albums from the 70s. The arrangements with the singers are first class especially "Another Somebody Done Somebody Wrong Song". It is another nice collection for those who are fans of this talented music arranger!.


Track Listings :

1. My Eyes Adored You
2. The Best of My Love (Like I Love You)
3. He Don't Love You (Like I Love You)
4. Lovin' You
5. Last Farewell
6. (Hey Won't You Play) Another Somebody Done Somebody Wrong Song
7. My Melody of Love
8. Only Yesterday
9. Before the Next Teardrop Falls
10. I Need You Baby
11. On the Run
12. Jackie Blues
13. Please Mr. Please
14. Midnight Blues
15. Rhinestone Cowboy/Wildfire
16. Feelings
17. Theme from Paper Tiger (My Little Friend)
18. I'm Sorry
19. At Seventeen
20. Solitaire
21. Love Wil; L Keep Us Together/How Sweet It Is (To Be Loved Yo You)
22. Love Theme from an X-Rated Movie

11 , 12 and 22 , Bonus Tracks

EAC LOG
Exact Audio Copy V1.0 beta 3 from 29. August 2011

EAC extraction logfile from 5. June 2015, 9:14

Ray Conniff / Another Somebody Done Somebody Wrong Song - Love Will Keep Us Together

Used drive : SONY DVD RW DRU-840A Adapter: 0 ID: 1

Read mode : Secure
Utilize accurate stream : Yes
Defeat audio cache : Yes
Make use of C2 pointers : No

Read offset correction : 6
Overread into Lead-In and Lead-Out : No
Fill up missing offset samples with silence : Yes
Delete leading and trailing silent blocks : No
Null samples used in CRC calculations : Yes
Used interface : Native Win32 interface for Win NT & 2000
Gap handling : Not detected, thus appended to previous track

Used output format : User Defined Encoder
Selected bitrate : 320 kBit/s
Quality : High
Add ID3 tag : No
Command line compressor : C:Archivos de programaExact Audio CopyFLACFLAC.EXE
Additional command line options : -6 -V -T "ARTIST=%artist%" -T "TITLE=%title%" -T "ALBUM=%albumtitle%" -T "DATE=%year%" -T "TRACKNUMBER=%tracknr%" -T "GENRE=%genre%" -T "COMMENT=%comment%" -T "BAND=%albuminterpret%" -T "ALBUMARTIST=%albuminterpret%" -T "COMPOSER=%composer%" %haslyrics%--tag-from-file=LYRICS="%lyricsfile%"%haslyrics% -T "DISCNUMBER=%cdnumber%" -T "TOTALDISCS=%totalcds%" -T "TOTALTRACKS=%numtracks%" %hascover%--picture="%coverfile%"%hascover% %source% -o %dest% TOC of the extracted CD

Track | Start | Length | Start sector | End sector
---------------------------------------------------------
1 | 0:00.00 | 2:44.30 | 0 | 12329
2 | 2:44.30 | 3:20.50 | 12330 | 27379
3 | 6:05.05 | 3:47.15 | 27380 | 44419
4 | 9:52.20 | 2:32.25 | 44420 | 55844
5 | 12:24.45 | 3:32.57 | 55845 | 71801
6 | 15:57.27 | 3:06.30 | 71802 | 85781
7 | 19:03.57 | 3:32.05 | 85782 | 101686
8 | 22:35.62 | 3:33.18 | 101687 | 117679
9 | 26:09.05 | 2:26.20 | 117680 | 128649
10 | 28:35.25 | 2:56.60 | 128650 | 141909
11 | 31:32.10 | 3:16.67 | 141910 | 156676
12 | 34:49.02 | 3:17.70 | 156677 | 171521
13 | 38:06.72 | 3:02.20 | 171522 | 185191
14 | 41:09.17 | 3:05.53 | 185192 | 199119
15 | 44:14.70 | 6:17.25 | 199120 | 227419
16 | 50:32.20 | 3:40.37 | 227420 | 243956
17 | 54:12.57 | 2:39.08 | 243957 | 255889
18 | 56:51.65 | 4:00.70 | 255890 | 273959
19 | 60:52.60 | 4:26.30 | 273960 | 293939
20 | 65:19.15 | 3:40.32 | 293940 | 310471
21 | 68:59.47 | 5:01.10 | 310472 | 333056
22 | 74:00.57 | 2:46.30 | 333057 | 345536 Track 1

Filename E:MUSICMy MusicRe subirRay ConniffRay Conniff - Another Somebody Done Somebody Wrong Song . plus bonus tracks - Love Will Keep Us Together . plus bonus tracksCD1 My Eyes Adored You.wav

Peak level 90.8 %
Extraction speed 1.8 X
Track quality 100.0 %
Test CRC B50309EF
Copy CRC B50309EF
Cannot be verified as accurate (confidence 2) [3853DAB0], AccurateRip returned [22FADA20] (AR v2)
Copy OK

Track 2

Filename E:MUSICMy MusicRe subirRay ConniffRay Conniff - Another Somebody Done Somebody Wrong Song . plus bonus tracks - Love Will Keep Us Together . plus bonus tracksCD2 The Best of My Love (Like I Love You).wav

Peak level 92.3 %
Extraction speed 2.0 X
Track quality 100.0 %
Test CRC DE60D40F
Copy CRC DE60D40F
Cannot be verified as accurate (confidence 2) [103A3D81], AccurateRip returned [0CC7130C] (AR v2)
Copy OK

Track 3

Filename E:MUSICMy MusicRe subirRay ConniffRay Conniff - Another Somebody Done Somebody Wrong Song . plus bonus tracks - Love Will Keep Us Together . plus bonus tracksCD3 He Don't Love You (Like I Love You).wav

Peak level 92.3 %
Extraction speed 2.1 X
Track quality 100.0 %
Test CRC E336CF23
Copy CRC E336CF23
Cannot be verified as accurate (confidence 2) [8F3EB648], AccurateRip returned [19723CA5] (AR v2)
Copy OK

Track 4

Filename E:MUSICMy MusicRe subirRay ConniffRay Conniff - Another Somebody Done Somebody Wrong Song . plus bonus tracks - Love Will Keep Us Together . plus bonus tracksCD4 Lovin' You.wav

Peak level 87.8 %
Extraction speed 2.1 X
Track quality 100.0 %
Test CRC A0152311
Copy CRC A0152311
Cannot be verified as accurate (confidence 2) [65A6BC90], AccurateRip returned [245BD6FC] (AR v2)
Copy OK

Track 5

Filename E:MUSICMy MusicRe subirRay ConniffRay Conniff - Another Somebody Done Somebody Wrong Song . plus bonus tracks - Love Will Keep Us Together . plus bonus tracksCD5 Last Farewell.wav

Peak level 92.3 %
Extraction speed 2.4 X
Track quality 100.0 %
Test CRC 49695F75
Copy CRC 49695F75
Cannot be verified as accurate (confidence 2) [C0536F28], AccurateRip returned [576E8977] (AR v2)
Copy OK

Track 6

Filename E:MUSICMy MusicRe subirRay ConniffRay Conniff - Another Somebody Done Somebody Wrong Song . plus bonus tracks - Love Will Keep Us Together . plus bonus tracksCD6 (Hey Won't You Play) Another Somebody Done Somebody Wrong Song.wav

Peak level 92.3 %
Extraction speed 2.4 X
Track quality 100.0 %
Test CRC 4A2FC670
Copy CRC 4A2FC670
Cannot be verified as accurate (confidence 2) [F72275AF], AccurateRip returned [D6825A95] (AR v2)
Copy OK

Track 7

Filename E:MUSICMy MusicRe subirRay ConniffRay Conniff - Another Somebody Done Somebody Wrong Song . plus bonus tracks - Love Will Keep Us Together . plus bonus tracksCD7 My Melody of Love.wav

Peak level 91.7 %
Extraction speed 2.6 X
Track quality 100.0 %
Test CRC 1AF880AD
Copy CRC 1AF880AD
Cannot be verified as accurate (confidence 2) [E9770763], AccurateRip returned [67376F2A] (AR v2)
Copy OK

Track 8

Filename E:MUSICMy MusicRe subirRay ConniffRay Conniff - Another Somebody Done Somebody Wrong Song . plus bonus tracks - Love Will Keep Us Together . plus bonus tracksCD8 Only Yesterday.wav

Peak level 92.0 %
Extraction speed 2.7 X
Track quality 100.0 %
Test CRC 0D1C3C86
Copy CRC 0D1C3C86
Cannot be verified as accurate (confidence 2) [502CE9CE], AccurateRip returned [303897B7] (AR v2)
Copy OK

Track 9

Filename E:MUSICMy MusicRe subirRay ConniffRay Conniff - Another Somebody Done Somebody Wrong Song . plus bonus tracks - Love Will Keep Us Together . plus bonus tracksCD9 Before the Next Teardrop Falls.wav

Peak level 92.3 %
Extraction speed 2.6 X
Track quality 100.0 %
Test CRC 033A728C
Copy CRC 033A728C
Cannot be verified as accurate (confidence 2) [F1967270], AccurateRip returned [9087E7D2] (AR v2)
Copy OK

Track 10

Filename E:MUSICMy MusicRe subirRay ConniffRay Conniff - Another Somebody Done Somebody Wrong Song . plus bonus tracks - Love Will Keep Us Together . plus bonus tracksCD10 I Need You Baby.wav

Peak level 92.3 %
Extraction speed 2.8 X
Track quality 100.0 %
Test CRC AE837A4E
Copy CRC AE837A4E
Cannot be verified as accurate (confidence 2) [4FDA2CE9], AccurateRip returned [0068292F] (AR v2)
Copy OK

Track 11

Filename E:MUSICMy MusicRe subirRay ConniffRay Conniff - Another Somebody Done Somebody Wrong Song . plus bonus tracks - Love Will Keep Us Together . plus bonus tracksCD11 On the Run.wav

Peak level 92.3 %
Extraction speed 2.2 X
Track quality 99.9 %
Test CRC C4578C53
Copy CRC C4578C53
Cannot be verified as accurate (confidence 2) [2C29387E], AccurateRip returned [5FDBFB86] (AR v2)
Copy OK

Track 12

Filename E:MUSICMy MusicRe subirRay ConniffRay Conniff - Another Somebody Done Somebody Wrong Song . plus bonus tracks - Love Will Keep Us Together . plus bonus tracksCD12 Jackie Blues.wav

Peak level 92.3 %
Extraction speed 3.0 X
Track quality 100.0 %
Test CRC FAC18D85
Copy CRC FAC18D85
Cannot be verified as accurate (confidence 2) [96E9D95F], AccurateRip returned [AE8E3850] (AR v2)
Copy OK

Track 13

Filename E:MUSICMy MusicRe subirRay ConniffRay Conniff - Another Somebody Done Somebody Wrong Song . plus bonus tracks - Love Will Keep Us Together . plus bonus tracksCD13 Please Mr. Please.wav

Peak level 92.3 %
Extraction speed 2.2 X
Track quality 99.9 %
Test CRC 28010087
Copy CRC 28010087
Cannot be verified as accurate (confidence 2) [FDF855E4], AccurateRip returned [84F7A51C] (AR v2)
Copy OK

Track 14

Filename E:MUSICMy MusicRe subirRay ConniffRay Conniff - Another Somebody Done Somebody Wrong Song . plus bonus tracks - Love Will Keep Us Together . plus bonus tracksCD14 Midnight Blues.wav

Peak level 90.9 %
Extraction speed 3.2 X
Track quality 100.0 %
Test CRC 37CA6CA6
Copy CRC 37CA6CA6
Cannot be verified as accurate (confidence 2) [F572ED82], AccurateRip returned [8712C3BA] (AR v2)
Copy OK

Track 15

Filename E:MUSICMy MusicRe subirRay ConniffRay Conniff - Another Somebody Done Somebody Wrong Song . plus bonus tracks - Love Will Keep Us Together . plus bonus tracksCD15 Rhinestone Cowboy,Wildfire.wav

Peak level 90.3 %
Extraction speed 3.6 X
Track quality 100.0 %
Test CRC 0B0AF753
Copy CRC 0B0AF753
Cannot be verified as accurate (confidence 2) [D3F970D0], AccurateRip returned [FD835EF1] (AR v2)
Copy OK

Track 16

Filename E:MUSICMy MusicRe subirRay ConniffRay Conniff - Another Somebody Done Somebody Wrong Song . plus bonus tracks - Love Will Keep Us Together . plus bonus tracksCD16 Feelings.wav

Peak level 92.3 %
Extraction speed 3.5 X
Track quality 100.0 %
Test CRC C0D56DF4
Copy CRC C0D56DF4
Cannot be verified as accurate (confidence 2) [D7A829B9], AccurateRip returned [1C84AFA2] (AR v2)
Copy OK

Track 17

Filename E:MUSICMy MusicRe subirRay ConniffRay Conniff - Another Somebody Done Somebody Wrong Song . plus bonus tracks - Love Will Keep Us Together . plus bonus tracksCD17 Theme from Paper Tiger (My Little Friend).wav

Peak level 92.3 %
Extraction speed 3.4 X
Track quality 100.0 %
Test CRC 3512EE6E
Copy CRC 3512EE6E
Cannot be verified as accurate (confidence 2) [D0038F1C], AccurateRip returned [72BF405E] (AR v2)
Copy OK

Track 18

Filename E:MUSICMy MusicRe subirRay ConniffRay Conniff - Another Somebody Done Somebody Wrong Song . plus bonus tracks - Love Will Keep Us Together . plus bonus tracksCD18 I'm Sorry.wav

Peak level 88.8 %
Extraction speed 3.7 X
Track quality 100.0 %
Test CRC 8B1CABEA
Copy CRC 8B1CABEA
Cannot be verified as accurate (confidence 2) [DC1DE805], AccurateRip returned [7E2C41A2] (AR v2)
Copy OK

Track 19

Filename E:MUSICMy MusicRe subirRay ConniffRay Conniff - Another Somebody Done Somebody Wrong Song . plus bonus tracks - Love Will Keep Us Together . plus bonus tracksCD19 At Seventeen.wav

Peak level 85.6 %
Extraction speed 3.8 X
Track quality 100.0 %
Test CRC 9A290ECF
Copy CRC 9A290ECF
Cannot be verified as accurate (confidence 2) [F58F4D2F], AccurateRip returned [D589D900] (AR v2)
Copy OK

Track 20

Filename E:MUSICMy MusicRe subirRay ConniffRay Conniff - Another Somebody Done Somebody Wrong Song . plus bonus tracks - Love Will Keep Us Together . plus bonus tracksCD20 Solitaire.wav

Peak level 90.4 %
Extraction speed 2.6 X
Track quality 99.9 %
Test CRC 0E1E0094
Copy CRC 0E1E0094
Cannot be verified as accurate (confidence 2) [A39B7BF6], AccurateRip returned [3C15FFC9] (AR v2)
Copy OK

Track 21

Filename E:MUSICMy MusicRe subirRay ConniffRay Conniff - Another Somebody Done Somebody Wrong Song . plus bonus tracks - Love Will Keep Us Together . plus bonus tracksCD21 Love Wil; L Keep Us Together,How Sweet It Is (To Be Loved Yo You).wav

Peak level 90.4 %
Extraction speed 3.0 X
Track quality 99.9 %
Test CRC CA316484
Copy CRC CA316484
Cannot be verified as accurate (confidence 2) [DCE22A7E], AccurateRip returned [2E5E2D25] (AR v2)
Copy OK

Track 22

Filename E:MUSICMy MusicRe subirRay ConniffRay Conniff - Another Somebody Done Somebody Wrong Song . plus bonus tracks - Love Will Keep Us Together . plus bonus tracksCD22 Love Theme from an X-Rated Movie [x].wav

Peak level 89.8 %
Extraction speed 3.8 X
Track quality 100.0 %
Test CRC 2E941A50
Copy CRC 2E941A50
Cannot be verified as accurate (confidence 2) [3F5C4041], AccurateRip returned [EDA8981E] (AR v2)
Copy OK No tracks could be verified as accurate
You may have a different pressing from the one(s) in the database

No errors occurred

End of status report

==== Log checksum 0A3718DF1760EEE5577745C2F89071C7DE73B576015EB5A20CF738DBCA7D7D38 ====

------------------------------------------------------------

Exact Audio Copy V1.0 beta 3 from 29. August 2011

EAC extraction logfile from 5. June 2015, 9:14

Ray Conniff / Another Somebody Done Somebody Wrong Song - Love Will Keep Us Together

Used drive : SONY DVD RW DRU-840A Adapter: 0 ID: 1

Read mode : Secure
Utilize accurate stream : Yes
Defeat audio cache : Yes
Make use of C2 pointers : No

Read offset correction : 6
Overread into Lead-In and Lead-Out : No
Fill up missing offset samples with silence : Yes
Delete leading and trailing silent blocks : No
Null samples used in CRC calculations : Yes
Used interface : Native Win32 interface for Win NT & 2000
Gap handling : Not detected, thus appended to previous track

Used output format : User Defined Encoder
Selected bitrate : 320 kBit/s
Quality : High
Add ID3 tag : No
Command line compressor : C:Archivos de programaExact Audio CopyFLACFLAC.EXE
Additional command line options : -6 -V -T "ARTIST=%artist%" -T "TITLE=%title%" -T "ALBUM=%albumtitle%" -T "DATE=%year%" -T "TRACKNUMBER=%tracknr%" -T "GENRE=%genre%" -T "COMMENT=%comment%" -T "BAND=%albuminterpret%" -T "ALBUMARTIST=%albuminterpret%" -T "COMPOSER=%composer%" %haslyrics%--tag-from-file=LYRICS="%lyricsfile%"%haslyrics% -T "DISCNUMBER=%cdnumber%" -T "TOTALDISCS=%totalcds%" -T "TOTALTRACKS=%numtracks%" %hascover%--picture="%coverfile%"%hascover% %source% -o %dest% TOC of the extracted CD

Track | Start | Length | Start sector | End sector
---------------------------------------------------------
1 | 0:00.00 | 2:44.30 | 0 | 12329
2 | 2:44.30 | 3:20.50 | 12330 | 27379
3 | 6:05.05 | 3:47.15 | 27380 | 44419
4 | 9:52.20 | 2:32.25 | 44420 | 55844
5 | 12:24.45 | 3:32.57 | 55845 | 71801
6 | 15:57.27 | 3:06.30 | 71802 | 85781
7 | 19:03.57 | 3:32.05 | 85782 | 101686
8 | 22:35.62 | 3:33.18 | 101687 | 117679
9 | 26:09.05 | 2:26.20 | 117680 | 128649
10 | 28:35.25 | 2:56.60 | 128650 | 141909
11 | 31:32.10 | 3:16.67 | 141910 | 156676
12 | 34:49.02 | 3:17.70 | 156677 | 171521
13 | 38:06.72 | 3:02.20 | 171522 | 185191
14 | 41:09.17 | 3:05.53 | 185192 | 199119
15 | 44:14.70 | 6:17.25 | 199120 | 227419
16 | 50:32.20 | 3:40.37 | 227420 | 243956
17 | 54:12.57 | 2:39.08 | 243957 | 255889
18 | 56:51.65 | 4:00.70 | 255890 | 273959
19 | 60:52.60 | 4:26.30 | 273960 | 293939
20 | 65:19.15 | 3:40.32 | 293940 | 310471
21 | 68:59.47 | 5:01.10 | 310472 | 333056
22 | 74:00.57 | 2:46.30 | 333057 | 345536 Track 1

Filename E:MUSICMy MusicRe subirRay ConniffRay Conniff - Another Somebody Done Somebody Wrong Song . plus bonus tracks - Love Will Keep Us Together . plus bonus tracksCD1 My Eyes Adored You.wav

Peak level 90.8 %
Extraction speed 1.8 X
Track quality 100.0 %
Test CRC B50309EF
Copy CRC B50309EF
Cannot be verified as accurate (confidence 2) [3853DAB0], AccurateRip returned [22FADA20] (AR v2)
Copy OK

Track 2

Filename E:MUSICMy MusicRe subirRay ConniffRay Conniff - Another Somebody Done Somebody Wrong Song . plus bonus tracks - Love Will Keep Us Together . plus bonus tracksCD2 The Best of My Love (Like I Love You).wav

Peak level 92.3 %
Extraction speed 2.0 X
Track quality 100.0 %
Test CRC DE60D40F
Copy CRC DE60D40F
Cannot be verified as accurate (confidence 2) [103A3D81], AccurateRip returned [0CC7130C] (AR v2)
Copy OK

Track 3

Filename E:MUSICMy MusicRe subirRay ConniffRay Conniff - Another Somebody Done Somebody Wrong Song . plus bonus tracks - Love Will Keep Us Together . plus bonus tracksCD3 He Don't Love You (Like I Love You).wav

Peak level 92.3 %
Extraction speed 2.1 X
Track quality 100.0 %
Test CRC E336CF23
Copy CRC E336CF23
Cannot be verified as accurate (confidence 2) [8F3EB648], AccurateRip returned [19723CA5] (AR v2)
Copy OK

Track 4

Filename E:MUSICMy MusicRe subirRay ConniffRay Conniff - Another Somebody Done Somebody Wrong Song . plus bonus tracks - Love Will Keep Us Together . plus bonus tracksCD4 Lovin' You.wav

Peak level 87.8 %
Extraction speed 2.1 X
Track quality 100.0 %
Test CRC A0152311
Copy CRC A0152311
Cannot be verified as accurate (confidence 2) [65A6BC90], AccurateRip returned [245BD6FC] (AR v2)
Copy OK

Track 5

Filename E:MUSICMy MusicRe subirRay ConniffRay Conniff - Another Somebody Done Somebody Wrong Song . plus bonus tracks - Love Will Keep Us Together . plus bonus tracksCD5 Last Farewell.wav

Peak level 92.3 %
Extraction speed 2.4 X
Track quality 100.0 %
Test CRC 49695F75
Copy CRC 49695F75
Cannot be verified as accurate (confidence 2) [C0536F28], AccurateRip returned [576E8977] (AR v2)
Copy OK

Track 6

Filename E:MUSICMy MusicRe subirRay ConniffRay Conniff - Another Somebody Done Somebody Wrong Song . plus bonus tracks - Love Will Keep Us Together . plus bonus tracksCD6 (Hey Won't You Play) Another Somebody Done Somebody Wrong Song.wav

Peak level 92.3 %
Extraction speed 2.4 X
Track quality 100.0 %
Test CRC 4A2FC670
Copy CRC 4A2FC670
Cannot be verified as accurate (confidence 2) [F72275AF], AccurateRip returned [D6825A95] (AR v2)
Copy OK

Track 7

Filename E:MUSICMy MusicRe subirRay ConniffRay Conniff - Another Somebody Done Somebody Wrong Song . plus bonus tracks - Love Will Keep Us Together . plus bonus tracksCD7 My Melody of Love.wav

Peak level 91.7 %
Extraction speed 2.6 X
Track quality 100.0 %
Test CRC 1AF880AD
Copy CRC 1AF880AD
Cannot be verified as accurate (confidence 2) [E9770763], AccurateRip returned [67376F2A] (AR v2)
Copy OK

Track 8

Filename E:MUSICMy MusicRe subirRay ConniffRay Conniff - Another Somebody Done Somebody Wrong Song . plus bonus tracks - Love Will Keep Us Together . plus bonus tracksCD8 Only Yesterday.wav

Peak level 92.0 %
Extraction speed 2.7 X
Track quality 100.0 %
Test CRC 0D1C3C86
Copy CRC 0D1C3C86
Cannot be verified as accurate (confidence 2) [502CE9CE], AccurateRip returned [303897B7] (AR v2)
Copy OK

Track 9

Filename E:MUSICMy MusicRe subirRay ConniffRay Conniff - Another Somebody Done Somebody Wrong Song . plus bonus tracks - Love Will Keep Us Together . plus bonus tracksCD9 Before the Next Teardrop Falls.wav

Peak level 92.3 %
Extraction speed 2.6 X
Track quality 100.0 %
Test CRC 033A728C
Copy CRC 033A728C
Cannot be verified as accurate (confidence 2) [F1967270], AccurateRip returned [9087E7D2] (AR v2)
Copy OK

Track 10

Filename E:MUSICMy MusicRe subirRay ConniffRay Conniff - Another Somebody Done Somebody Wrong Song . plus bonus tracks - Love Will Keep Us Together . plus bonus tracksCD10 I Need You Baby.wav

Peak level 92.3 %
Extraction speed 2.8 X
Track quality 100.0 %
Test CRC AE837A4E
Copy CRC AE837A4E
Cannot be verified as accurate (confidence 2) [4FDA2CE9], AccurateRip returned [0068292F] (AR v2)
Copy OK

Track 11

Filename E:MUSICMy MusicRe subirRay ConniffRay Conniff - Another Somebody Done Somebody Wrong Song . plus bonus tracks - Love Will Keep Us Together . plus bonus tracksCD11 On the Run.wav

Peak level 92.3 %
Extraction speed 2.2 X
Track quality 99.9 %
Test CRC C4578C53
Copy CRC C4578C53
Cannot be verified as accurate (confidence 2) [2C29387E], AccurateRip returned [5FDBFB86] (AR v2)
Copy OK

Track 12

Filename E:MUSICMy MusicRe subirRay ConniffRay Conniff - Another Somebody Done Somebody Wrong Song . plus bonus tracks - Love Will Keep Us Together . plus bonus tracksCD12 Jackie Blues.wav

Peak level 92.3 %
Extraction speed 3.0 X
Track quality 100.0 %
Test CRC FAC18D85
Copy CRC FAC18D85
Cannot be verified as accurate (confidence 2) [96E9D95F], AccurateRip returned [AE8E3850] (AR v2)
Copy OK

Track 13

Filename E:MUSICMy MusicRe subirRay ConniffRay Conniff - Another Somebody Done Somebody Wrong Song . plus bonus tracks - Love Will Keep Us Together . plus bonus tracksCD13 Please Mr. Please.wav

Peak level 92.3 %
Extraction speed 2.2 X
Track quality 99.9 %
Test CRC 28010087
Copy CRC 28010087
Cannot be verified as accurate (confidence 2) [FDF855E4], AccurateRip returned [84F7A51C] (AR v2)
Copy OK

Track 14

Filename E:MUSICMy MusicRe subirRay ConniffRay Conniff - Another Somebody Done Somebody Wrong Song . plus bonus tracks - Love Will Keep Us Together . plus bonus tracksCD14 Midnight Blues.wav

Peak level 90.9 %
Extraction speed 3.2 X
Track quality 100.0 %
Test CRC 37CA6CA6
Copy CRC 37CA6CA6
Cannot be verified as accurate (confidence 2) [F572ED82], AccurateRip returned [8712C3BA] (AR v2)
Copy OK

Track 15

Filename E:MUSICMy MusicRe subirRay ConniffRay Conniff - Another Somebody Done Somebody Wrong Song . plus bonus tracks - Love Will Keep Us Together . plus bonus tracksCD15 Rhinestone Cowboy,Wildfire.wav

Peak level 90.3 %
Extraction speed 3.6 X
Track quality 100.0 %
Test CRC 0B0AF753
Copy CRC 0B0AF753
Cannot be verified as accurate (confidence 2) [D3F970D0], AccurateRip returned [FD835EF1] (AR v2)
Copy OK

Track 16

Filename E:MUSICMy MusicRe subirRay ConniffRay Conniff - Another Somebody Done Somebody Wrong Song . plus bonus tracks - Love Will Keep Us Together . plus bonus tracksCD16 Feelings.wav

Peak level 92.3 %
Extraction speed 3.5 X
Track quality 100.0 %
Test CRC C0D56DF4
Copy CRC C0D56DF4
Cannot be verified as accurate (confidence 2) [D7A829B9], AccurateRip returned [1C84AFA2] (AR v2)
Copy OK

Track 17

Filename E:MUSICMy MusicRe subirRay ConniffRay Conniff - Another Somebody Done Somebody Wrong Song . plus bonus tracks - Love Will Keep Us Together . plus bonus tracksCD17 Theme from Paper Tiger (My Little Friend).wav

Peak level 92.3 %
Extraction speed 3.4 X
Track quality 100.0 %
Test CRC 3512EE6E
Copy CRC 3512EE6E
Cannot be verified as accurate (confidence 2) [D0038F1C], AccurateRip returned [72BF405E] (AR v2)
Copy OK

Track 18

Filename E:MUSICMy MusicRe subirRay ConniffRay Conniff - Another Somebody Done Somebody Wrong Song . plus bonus tracks - Love Will Keep Us Together . plus bonus tracksCD18 I'm Sorry.wav

Peak level 88.8 %
Extraction speed 3.7 X
Track quality 100.0 %
Test CRC 8B1CABEA
Copy CRC 8B1CABEA
Cannot be verified as accurate (confidence 2) [DC1DE805], AccurateRip returned [7E2C41A2] (AR v2)
Copy OK

Track 19

Filename E:MUSICMy MusicRe subirRay ConniffRay Conniff - Another Somebody Done Somebody Wrong Song . plus bonus tracks - Love Will Keep Us Together . plus bonus tracksCD19 At Seventeen.wav

Peak level 85.6 %
Extraction speed 3.8 X
Track quality 100.0 %
Test CRC 9A290ECF
Copy CRC 9A290ECF
Cannot be verified as accurate (confidence 2) [F58F4D2F], AccurateRip returned [D589D900] (AR v2)
Copy OK

Track 20

Filename E:MUSICMy MusicRe subirRay ConniffRay Conniff - Another Somebody Done Somebody Wrong Song . plus bonus tracks - Love Will Keep Us Together . plus bonus tracksCD20 Solitaire.wav

Peak level 90.4 %
Extraction speed 2.6 X
Track quality 99.9 %
Test CRC 0E1E0094
Copy CRC 0E1E0094
Cannot be verified as accurate (confidence 2) [A39B7BF6], AccurateRip returned [3C15FFC9] (AR v2)
Copy OK

Track 21

Filename E:MUSICMy MusicRe subirRay ConniffRay Conniff - Another Somebody Done Somebody Wrong Song . plus bonus tracks - Love Will Keep Us Together . plus bonus tracksCD21 Love Wil; L Keep Us Together,How Sweet It Is (To Be Loved Yo You).wav

Peak level 90.4 %
Extraction speed 3.0 X
Track quality 99.9 %
Test CRC CA316484
Copy CRC CA316484
Cannot be verified as accurate (confidence 2) [DCE22A7E], AccurateRip returned [2E5E2D25] (AR v2)
Copy OK

Track 22

Filename E:MUSICMy MusicRe subirRay ConniffRay Conniff - Another Somebody Done Somebody Wrong Song . plus bonus tracks - Love Will Keep Us Together . plus bonus tracksCD22 Love Theme from an X-Rated Movie [x].wav

Peak level 89.8 %
Extraction speed 3.8 X
Track quality 100.0 %
Test CRC 2E941A50
Copy CRC 2E941A50
Cannot be verified as accurate (confidence 2) [3F5C4041], AccurateRip returned [EDA8981E] (AR v2)
Copy OK No tracks could be verified as accurate
You may have a different pressing from the one(s) in the database

No errors occurred

End of status report

==== Log checksum 0A3718DF1760EEE5577745C2F89071C7DE73B576015EB5A20CF738DBCA7D7D38 ====





True Love 2004 | My Summer Love 2004 | A Love Song Of Bobby Long 2004 | Sky Love Song | Love Life 2004 | The Consequences Of Love 2004 | Sorry I Love You 2004 | Ray Conniff And The Singers | Love Song De | Selena Gomez Love You Like A Love Song
Ray Conniff - Another Somebody Done Somebody Wrong Song / Love Will Keep Us Together (2 LP in 1 CD 2004 ) Re Up Torrent Download with keygen, crack, serial, dvdrip, hdrip, HD, 720p, 1024p, 2016, 2015