McMafia S01E02 HDTV x264-ORGANiC[ettv] | Cita A Ciegas Con La Vida BluRayRip AC3 5.1 | Ocio Portaliano

VA - Last Of The Great Mississippi Delta Bluesmen: Live In Dallas (2007)

New Download Links
Speed
 kbps
 kbps
 kbps

VA - Last Of The Great Mississippi Delta Bluesmen: Live In Dallas (2007)
Pinetop Perkins - Henry James Townsend - David 'Honeyboy' Edwards - Robert Lockwood, Jr.

EAC | FLAC | Image (Cue&Log) ~ 521 Mb (incl 5%) | Mp3 (CBR320) ~ 226 Mb (incl 5%) | Scans included
Genre: Blues, Delta Blues, Acoustic Blues, Electric Delta Blues | Label: The Blue Shoe Project | Time: 01:17:17

2007 GRAMMY AWARD-WINNING BEST TRADITIONAL BLUES ALBUM OF THE YEAR HISTORY IN THE MAKING Once in a lifetime you may experience a brief moment when the stars align and something truly extraordinary happens. This was the case in October 2004, when four of the greatest living blues legends were assembled in Dallas, Texas for one incomparable night of music. At the time they ranged in age from 89 to 94 and all had received the National Endowment for the Arts Heritage Fellowship Award, the highest honor in the USA for traditional arts. These musicians have devoted their entire life to playing the blues, and staging such an epic event was a once-in-a-lifetime opportunity. Once reunited, the old magic reemerged. It was if they were long lost school buddies. There was a time when Dallas was viewed as an epicenter for the blues. It was home to such legends as Blind Lemon Jefferson, Huddie Ledbelly Ledbetter, T-Bone Walker, Freddie King and others. The Longhorn Ballroom in Dallas and the Magnolia in Fort Worth catered to well-dressed audiences who were transfixed by the soulful shouts of Johnny Taylor, the screaming Telecaster of Albert Collins and the eerie cry of Albert King s Flying V. On October 16th, 2004, Dallas once again reclaimed its place as a blues capitol when the four remaining elders of the blues reunited on the stage of the historic Majestic Theater for a grand performance. It was a night that was 90 years in the making, but will live on for eternity. HENRY JAMES TOWNSEND He goes by the name of Henry James Townsend but his friends call him The Mule . Though the nickname s origin is a mystery, it could refer to his stubborn will to keep playing. At the time of this recording, the dean of St. Louis blues and reigning patriarch of the blues, Henry James never had played Dallas in his 94 years. He is the only American recording artist to have recorded in every decade since the 1920 s. Henry s music is a unique combination of country and city blues, tempered with just the right amount of influences from Lonnie Johnson and Roosevelt Sykes. The best part about Henry is the wisdom he shares with the audience about his life and his music JOE WILLIE "PINETOP&" PERKINS Born July 7, 1913 in Belzoni, Mississippi, Grammy Award winner Joe Willie Pinetop Perkins took up piano mid-career after he was stabbed in the arm. Early on, Perkins accompanied such blues legends as Big Joe Williams and Sonny Boy Williamson. By 1953, he was well known as both a back-up player and solo act. This was also the year he made his first solo recording with Sun Records.... DAVID "HONEYBOY" EDWARDS David "Honeyboy" Edwards was born June 28, 1915 in Shaw, Mississippi. To listen to Mr. Edwards and his skilled slide guitar playing is to journey back in time to the Mississippi Delta and the street corners of Clarksdale, Mississippi. There, Honeyboy played a pivotal role in shaping the seminal moments of blues history. He is sought after by documentary filmmakers for his detailed accounts of blues folklore, especially his recollections of the day Robert Johnson died. He describes Deep Ellum, east of downtown Dallas, as if it were yesterday ROBERT LOCKWOOD, JR. Ninety-year-old Robert Lockwood, Jr. or "Robert Jr." to his friends used to "play" one-month gigs in Fort Worth during the 50's and 60's. He learned to play guitar from the legendary Robert Johnson, who lived with Lockwood's mother during his formative years. He learned his first song, "Sweet Home Chicago", in about three weeks under Johnson's tutelage. Robert is also one of the original King Biscuit Boys who once opened for King Biscuit Time, now the longest running live radio show in America. Today, Mr. Lockwood is recognized as one of the most prolific guitar players in the world...














Tracklist:

01. Robert Lockwood, Jr. - King Biscuit Time (02:57)
02. Pinetop Perkins - Chicken Shack (04:44)
03. Henry James Townsend - It's Got To End Somewhere (03:58)
04. David Honeyboy Edwards - Catfish Blues (03:00)
05. Pinetop Perkins - Down In Mississippi (03:38)
06. Robert Lockwood, Jr. - Hangin' On (05:19)
07. Henry James Townsend - All My Money's Gone (04:59)
08. David Honeyboy Edwards - Sweet Home Chicago (03:11)
09. Pinetop Perkins - Kansas City (04:55)
10. Henry James Townsend - If I Asked You (06:10)
11. Robert Lockwood, Jr. - Got To Find Me A Woman (04:58)
12. David Honeyboy Edwards - Country Boy (03:15)
13. Pinetop Perkins - Got My Mojo Working (05:13)
14. Henry James Townsend - If You Don't Want Me (06:01)
15. Robert Lockwood, Jr. - For You My Love (04:39)
16. David Honeyboy Edwards - Apron Strings (01:51)
17. Henry James Townsend - Blind Girl Blues (04:23)
18. Robert Lockwood, Jr. - See See Rider Blues (03:55)


EAC log
Exact Audio Copy V0.99 prebeta 5 from 4. May 2009

EAC extraction logfile from 1. January 2010, 23:09

Various / Last Of The Great Mississippi Delta Bluesmen : Live In Dallas

Used drive : PLEXTOR CD-R PX-230A Adapter: 1 ID: 1

Read mode : Secure
Utilize accurate stream : Yes
Defeat audio cache : Yes
Make use of C2 pointers : No

Read offset correction : 738
Overread into Lead-In and Lead-Out : No
Fill up missing offset samples with silence : Yes
Delete leading and trailing silent blocks : No
Null samples used in CRC calculations : Yes
Used interface : Installed external ASPI interface

Used output format : User Defined Encoder
Selected bitrate : 1024 kBit/s
Quality : High
Add ID3 tag : No
Command line compressor : C:Program FilesExact Audio CopyFLACFLAC.EXE
Additional command line options : -6 -V -T "ARTIST=%a" -T "TITLE=%t" -T "ALBUM=%g" -T "DATE=%y" -T "TRACKNUMBER=%n" -T "GENRE=%m" -T "COMMENT=%e" %s -o %d TOC of the extracted CD

Track | Start | Length | Start sector | End sector
---------------------------------------------------------
1 | 0:00.00 | 2:57.62 | 0 | 13336
2 | 2:57.62 | 4:44.37 | 13337 | 34673
3 | 7:42.24 | 3:58.25 | 34674 | 52548
4 | 11:40.49 | 3:00.26 | 52549 | 66074
5 | 14:41.00 | 3:38.49 | 66075 | 82473
6 | 18:19.49 | 5:19.63 | 82474 | 106461
7 | 23:39.37 | 4:59.67 | 106462 | 128953
8 | 28:39.29 | 3:11.59 | 128954 | 143337
9 | 31:51.13 | 4:55.25 | 143338 | 165487
10 | 36:46.38 | 6:10.56 | 165488 | 193293
11 | 42:57.19 | 4:58.59 | 193294 | 215702
12 | 47:56.03 | 3:15.14 | 215703 | 230341
13 | 51:11.17 | 5:13.35 | 230342 | 253851
14 | 56:24.52 | 6:01.21 | 253852 | 280947
15 | 62:25.73 | 4:39.58 | 280948 | 301930
16 | 67:05.56 | 1:51.66 | 301931 | 310321
17 | 68:57.47 | 4:23.64 | 310322 | 330110
18 | 73:21.36 | 3:55.13 | 330111 | 347748 Range status and errors

Selected range

Filename J:RipsVarious - Last Of The Great Mississippi Delta Bluesmen Live In Dallas.wav

Peak level 100.0 %
Range quality 99.9 %
Test CRC 25725839
Copy CRC 25725839
Copy OK

No errors occurred


AccurateRip summary

Track 1 accurately ripped (confidence 1) [BEC20AC8]
Track 2 accurately ripped (confidence 1) [7DB6CF08]
Track 3 accurately ripped (confidence 1) [9BF512C5]
Track 4 accurately ripped (confidence 1) [D97C0CC6]
Track 5 accurately ripped (confidence 1) [B503A7B2]
Track 6 accurately ripped (confidence 1) [4E3818C1]
Track 7 accurately ripped (confidence 1) [CBA9C6DF]
Track 8 accurately ripped (confidence 1) [311DF5A1]
Track 9 accurately ripped (confidence 1) [32CFB692]
Track 10 accurately ripped (confidence 1) [89C2CE3D]
Track 11 accurately ripped (confidence 1) [621F2F07]
Track 12 accurately ripped (confidence 1) [455C5639]
Track 13 accurately ripped (confidence 1) [69525A24]
Track 14 accurately ripped (confidence 1) [3A0B9BB2]
Track 15 accurately ripped (confidence 1) [FE09ABE0]
Track 16 accurately ripped (confidence 1) [D0EC65ED]
Track 17 accurately ripped (confidence 1) [51FB454C]
Track 18 accurately ripped (confidence 1) [FE51EAB3]

All tracks accurately ripped

End of status report

DR log
foobar2000 1.3.8 / Dynamic Range Meter 1.1.1
log date: 2015-05-17 13:40:01

--------------------------------------------------------------------------------
Analyzed: David Honeyboy Edwards / Last Of The Great Mississippi Delta Bluesmen : Live In Dallas
--------------------------------------------------------------------------------

DR Peak RMS Duration Track
--------------------------------------------------------------------------------
DR10 -0.11 dB -13.87 dB 3:00 04-Catfish Blues
DR10 -1.88 dB -14.46 dB 3:12 08-Sweet Home Chicago
DR9 -2.67 dB -13.18 dB 3:15 12-Country Boy
DR11 -0.52 dB -13.89 dB 1:52 16-Apron Strings
--------------------------------------------------------------------------------

Number of tracks: 4
Official DR value: DR10

Samplerate: 44100 Hz
Channels: 2
Bits per sample: 16
Bitrate: 827 kbps
Codec: FLAC
================================================================================

--------------------------------------------------------------------------------
Analyzed: Henry James Townsend / Last Of The Great Mississippi Delta Bluesmen : Live In Dallas
--------------------------------------------------------------------------------

DR Peak RMS Duration Track
--------------------------------------------------------------------------------
DR14 -0.88 dB -16.50 dB 3:58 03-It's Got To End Somewhere
DR12 -0.58 dB -16.06 dB 5:00 07-All My Money's Gone
DR12 -1.26 dB -15.00 dB 6:11 10-If I Asked You
DR13 -0.24 dB -15.89 dB 6:01 14-If You Don't Want Me
DR11 0.00 dB -13.56 dB 4:24 17-Blind Girl Blues
--------------------------------------------------------------------------------

Number of tracks: 5
Official DR value: DR12

Samplerate: 44100 Hz
Channels: 2
Bits per sample: 16
Bitrate: 827 kbps
Codec: FLAC
================================================================================

--------------------------------------------------------------------------------
Analyzed: Pinetop Perkins / Last Of The Great Mississippi Delta Bluesmen : Live In Dallas
--------------------------------------------------------------------------------

DR Peak RMS Duration Track
--------------------------------------------------------------------------------
DR13 -0.78 dB -14.84 dB 4:44 02-Chicken Shack
DR13 -1.19 dB -15.67 dB 3:39 05-Down In Mississippi
DR13 -0.24 dB -14.50 dB 4:55 09-Kansas City
DR11 -0.86 dB -12.87 dB 5:13 13-Got My Mojo Working
--------------------------------------------------------------------------------

Number of tracks: 4
Official DR value: DR12

Samplerate: 44100 Hz
Channels: 2
Bits per sample: 16
Bitrate: 827 kbps
Codec: FLAC
================================================================================

--------------------------------------------------------------------------------
Analyzed: Robert Lockwood, Jr. / Last Of The Great Mississippi Delta Bluesmen : Live In Dallas
--------------------------------------------------------------------------------

DR Peak RMS Duration Track
--------------------------------------------------------------------------------
DR12 -0.08 dB -14.03 dB 2:58 01-King Biscuit Time
DR12 -1.51 dB -15.56 dB 5:20 06-Hangin' On
DR10 -1.67 dB -13.63 dB 4:59 11-Got To Find Me A Woman
DR9 -1.06 dB -11.59 dB 4:40 15-For You My Love
DR12 -0.36 dB -15.25 dB 3:55 18-See See Rider Blues
--------------------------------------------------------------------------------

Number of tracks: 5
Official DR value: DR11

Samplerate: 44100 Hz
Channels: 2
Bits per sample: 16
Bitrate: 827 kbps
Codec: FLAC
================================================================================



All thanks to original releaser - рмх222





Mountain Mississippi Queen | Live Tour 2007 Voyager | The Mississippi 1982 | Live Free Or Die Hard 2007 | Celine Dion A New Day Live In Las Vegas 2007 | Mississippi Burning 1988 | Mountain Mississippi Queen | The Great Debaters 2007 | Muddy Waters Mississippi Live | Live Free Or Die Hard 2007 Yify
VA - Last Of The Great Mississippi Delta Bluesmen: Live In Dallas (2007) Torrent Download with keygen, crack, serial, dvdrip, hdrip, HD, 720p, 1024p, 2016, 2015