Marketing Communication - 422 Words | Chuk Bhul Dyavi Ghyavi | Ishq Ka Rang Safed

The Salsoul Orchestra - Up The Yellow Brick Road (1978) 2014 Big Break Records Remaster

New Download Links
Speed
 kbps
 kbps
 kbps

The Salsoul Orchestra - Up The Yellow Brick Road (1978) {2014 Big Break Records Remaster}
EAC rip (secure mode) | FLAC (tracks)+CUE+LOG -> 302 Mb | MP3 @320 -> 110 Mb
Full Artwork @ 300 dpi (png) -> 54 Mb | 5% repair rar
© 2014 Big Break Records / Cherry Red / Verse Music | CDBBR 0267
R'n'B / Funk / Disco / Philly Soul

BBR is proud to bring you UP THE YELLOW BRICK ROAD, the sixth instalment of our Salsoul Orchestra reissues. THE SALSOUL ORCHESTRA was the brainchild of once MFSB member and legendary vibraphonist, Vincent Montana Jr. Formed in 1974, THE SALSOUL ORCHESTRA, house band for the remarkable Salsoul Records, sometimes featured up to 50 members amongst its ranks including a number of former musicians from MFSB. THE SALSOUL ORCHESTRA began an eight-year recording period in 1975 releasing eleven sensational albums during that time featuring production input from, Stan Lucas, Patrick Adams, Bunny Sigler and Tom Moulton through the years.

Released in 1978 and recorded at the famous Sigma Sound Studios in Philadelphia, UP THE YELLOW BRICK ROAD was produced by the aforementioned Vincent Montana, Jr., and was mixed by the legendary Tom Moulton.

As the title suggests, UP THE YELLOW BRICK ROAD is inspired by the classic Broadway and film musicals with opening track ‘Ease On Down The Road’ taken from the Charlie Smalls penned "The Wiz,” a reinterpretation of The Wizard Of Oz, whose Broadway production won 7 Tony Awards. There are also two extended medleys of the famous songs from both West Side Story and Fiddler On The Roof as well as a cover of ‘Evergreen,’ the theme from A Star Is Born, which closes the album. Sandwiched in between is a great cover of the Beatles "Sgt. Peppers Lonely Hearts Club Band”. With Montana producing and arranging and Moulton mixing every track delivers the classic Salsoul sound and feel.

This newly remastered edition of UP THE YELLOW BRICK ROAD comes complete with extensive liner notes and bonus content making this BBR Remaster a must have for all Funk, Soul, Disco, Philly Soul and Broadway Musical fans out there!



BBR INFO

tracklist:
01. EASE ON DOWN THE ROAD
02. WEST SIDE STORY (Medley)
FANFARE
AMERICA
MARIA
SOMEWHERE INTERLUDE
TONIGHT
03. SGT. PEPPER'S LONELY HEARTS CLUB BAND
04. FIDDLER ON THE ROOF (MEDLEY)
FIDDLER ON THE ROOF
MATCHMAKER
SHERELE
SUNRISE, SUNSET
IF I WERE A RICH MAN
HAVAH NAGILA
THEME FROM "EXODUS”
05. EVERGREEN (THEME FROM ”A STAR IS BORN”)

BONUS TRACK
06. WEST SIDE STORY (12” Promotional Disco Mix)

EAC log
Exact Audio Copy V1.0 beta 3 from 29. August 2011

EAC extraction logfile from 13. July 2014, 17:04

The Salsoul Orchestra / Up The Yellow Brick Road

Used drive : TSSTcorp CDDVDW Adapter: 0 ID: 0

Read mode : Secure
Utilize accurate stream : Yes
Defeat audio cache : Yes
Make use of C2 pointers : No

Read offset correction : 6
Overread into Lead-In and Lead-Out : No
Fill up missing offset samples with silence : Yes
Delete leading and trailing silent blocks : No
Null samples used in CRC calculations : Yes
Used interface : Native Win32 interface for Win NT & 2000
Gap handling : Appended to previous track

Used output format : User Defined Encoder
Selected bitrate : 128 kBit/s
Quality : High
Add ID3 tag : No
Command line compressor : C:Program Files (x86)Exact Audio CopyFlacflac.exe
Additional command line options : -8 -V -T "ARTIST=%artist%" -T "TITLE=%title%" -T "ALBUM=%albumtitle%" -T "DATE=%year%" -T "TRACKNUMBER=%tracknr%" -T "TOTALTRACKS=%numtracks%" -T "GENRE=%genre%" -T "ALBUMARTIST=%albumartist%" -T "ALBUM ARTIST=%albumartist%" -T "COMMENT=EAC Secure Mode, Test & Copy, AccurateRip, FLAC -8" %source% TOC of the extracted CD

Track | Start | Length | Start sector | End sector
---------------------------------------------------------
1 | 0:00.00 | 5:31.66 | 0 | 24890
2 | 5:31.66 | 12:17.34 | 24891 | 80199
3 | 17:49.25 | 2:50.64 | 80200 | 93013
4 | 20:40.14 | 12:58.64 | 93014 | 151427
5 | 33:39.03 | 5:07.59 | 151428 | 174511
6 | 38:46.62 | 7:37.67 | 174512 | 208853 Track 1

Filename C:AddisistheGodFlac1 - Ease On Down The Road.wav

Pre-gap length 0:00:02.00

Peak level 95.7 %
Extraction speed 2.9 X
Track quality 100.0 %
Test CRC 52EF85C3
Copy CRC 52EF85C3
Track not present in AccurateRip database
Copy OK

Track 2

Filename C:AddisistheGodFlac2 - West Side Story Medley (Fanfare - America - Maria - Somewhere Interlude - Tonight).wav

Pre-gap length 0:00:00.40

Peak level 95.9 %
Extraction speed 3.7 X
Track quality 100.0 %
Test CRC 264F7AF7
Copy CRC 264F7AF7
Track not present in AccurateRip database
Copy OK

Track 3

Filename C:AddisistheGodFlac3 - Sgt. Pepper's Lonely Hearts Club Band.wav

Pre-gap length 0:00:00.52

Peak level 95.5 %
Extraction speed 3.5 X
Track quality 100.0 %
Test CRC A674EFD3
Copy CRC A674EFD3
Track not present in AccurateRip database
Copy OK

Track 4

Filename C:AddisistheGodFlac4 - Fiddler On The Roof Medley (Fiddler On The Roof - Matchmaker - Sherele - Sunrise Sunset - If I Where A Rich Man - Havah Nagila - Theme From 'exodus'.wav

Pre-gap length 0:00:01.08

Peak level 97.7 %
Extraction speed 4.3 X
Track quality 99.9 %
Test CRC 877F8448
Copy CRC 877F8448
Track not present in AccurateRip database
Copy OK

Track 5

Filename C:AddisistheGodFlac5 - Evergreen (Love Theme From 'A Star Is Born').wav

Pre-gap length 0:00:01.07

Peak level 94.3 %
Extraction speed 4.7 X
Track quality 100.0 %
Test CRC 9F0CC755
Copy CRC 9F0CC755
Track not present in AccurateRip database
Copy OK

Track 6

Filename C:AddisistheGodFlac6 - West Side Story (12' Disco Version).wav

Pre-gap length 0:00:05.57

Peak level 95.7 %
Extraction speed 5.2 X
Track quality 100.0 %
Test CRC 018D7289
Copy CRC 018D7289
Track not present in AccurateRip database
Copy OK None of the tracks are present in the AccurateRip database

No errors occurred

End of status report

==== Log checksum E9B4124A81B64400DC87DF8B6608DBDB61D38879B3F8AA26429C9EC6343E6769 ====





All thanks goes to the original releaser!



NEXT -> More Big Break Records Remaster...




Spinnin Records Best Of 2014 | Elton John Yellow Brick Road | Goodbye Yellow Brick | Spinnin Records Best 2014 | Brick Mansions 2014 Dual | Brick Mansion Yify 2014 | Spinnin Records Best Of 2014 | Yellow Magic Orchestra 1981 | Spinnin Records Top 2014 | Brick Mansions 2014 Is Safe 1
The Salsoul Orchestra - Up The Yellow Brick Road (1978) 2014 Big Break Records Remaster Torrent Download with keygen, crack, serial, dvdrip, hdrip, HD, 720p, 1024p, 2016, 2015