Pokemon Origins | Khamoshiyaan | The.Simpsons.S18E06.DVDRip.X264-REWARD

Little Walter - The Complete Chess Masters 1950-1967 (2009) 5 CD Box Set

New Download Links
Speed
 kbps
 kbps
 kbps

Little Walter - The Complete Chess Masters 1950-1967 (2009) 5 CD Box Set
EAC | FLAC | Tracks (Cue&Log) ~ 1.57 Gb (incl 5%) | Mp3 (CBR320) ~ 915 Mb (incl 5%) | Scans included
Genre: Electric Harmonica Blues, Electric Chicago Blues | Label: Geffen/Hip-O Select | # B0012636-02 | Time: 06:01:43

It is no exaggeration to call Little Walter the Jimi Hendrix of the electric harp: he redefined what the instrument was and what it could do, pushing the instrument so far into the future that his music still sounds modern decades after it was recorded. Little Walter wasn't the first musician to amplify the harmonica but he arguably was the first to make the harp sound electric, twisting twitching, vibrant runs out of his instrument; nearly stealing the show from Muddy Waters on his earliest Chess recordings; and so impressing Leonard Chess that he made Muddy keep Walter as his harpist even after Waters broke up his band. Chess also made Walter into his studio's house harpist and started to release Little Walter solo records with the instrumental "Juke" in 1952. "Juke" became a smash hit and turned Little Walter into a star, making him a steady presence on the '50s R&B charts. Like Chicago blues itself, Little Walter suffered a downturn of fortunes in the '60s, his career first eclipsed by the rise of rock & roll, but his decline was assisted in no small measure by the reckless alcoholic behavior that led to his early death in 1968. However, Hip-O Select's tremendous five-disc set The Complete Chess Masters proves that Little Walter remained capable of surprises until the end -- and that he's a major artist whose legacy only seems more formidable when it's heard as a whole, as it is here.

Technically speaking, the title The Complete Chess Masters may be a bit of a misnomer. Little Walter issued the majority of his sides on Chess' sister label Checker with his full LPs appearing on Chess proper, but this is splitting hairs: Walter cut all his solo sides for Chess, often in Chess studios, cutting most during a spell in the early and mid-'50s when he was the most successful artist on the label, leapfrogging over his boss Muddy Waters with "Juke," a song cut at the tail end of a Muddy-led session. Once "Juke" hit, the sessions started coming fast and furious, with Walter entering the studio four or five times a year during the mid-'50s, churning out singles that turned into hit after hit and not just on the strength of his electrified harp. Walter was a supple, nuanced singer, the roundness of his voice standing in sharp contrast to his lacerating harp, providing an inherent tension within his records; when he sang "Mellow Down Easy," it sounded as if it were possible to ease into his funky groove, but that harp pulled you right out. Such kinetic inadvertent drama fueled his prime '50s recordings and almost everything he cut was of shockingly high quality, extending beyond the hits "Blues with a Feeling" and "My Babe" and into B-sides and forgotten sides.

This makes The Complete Chess Masters consistently absorbing listening, hampered only slightly by a rather large preponderance of alternate takes that can sometimes slow the momentum of this set. Conversely, the appearance of Walter's legacy winds up being bolstered somewhat by Chess' over-recording of him at his peak and general avoidance of him in his decline. This five-disc set might be billed as stretching from 1950 to 1967 but that's misleading: all but 15 tracks here were recorded in the '50s, a fact that winds up camouflaging just how long Walter was in dire straits. His fall from Chess' biggest star to being given charity sessions reflects the impact of rock & roll on blues sales -- not only did they wipe out crossover blues hits, but Walter couldn't adapt to the times, his electric harp too closely tied to Chicago blues. So, he wound up with only a handful of sessions in the '60s, all presented on the final stretch, none less than entertaining, none a patch on Walter at his peak. These final recordings are necessary to fill out the picture, but what remains are those '50s sessions, which defined what electric blues was and what it could do, and produced music that is still invigorating and essential -- and best appreciated here, where the true depth of Little Walter's achievement is easy to behold.
Review by Stephen Thomas Erlewine, Allmusic.com



----------------------------------------------------------------------



Tracklist CD1:

01. Evans Shuffle (02:14)
02. Juke (02:45)
03. Juke (Alternate Take) (02:57)
04. Can't Hold Out Much Longer (03:01)
05. Can't Hold Out Much Longer (Alternate Take) (02:51)
06. Blue Midnight (Alternate Take) (03:02)
07. Blue Midnight (02:59)
08. Boogie (03:01)
09. Mean Old World (02:55)
10. Sad Hours (03:12)
11. Fast Boogie (02:48)
12. Fast Boogie (Alternate Take 1) (03:13)
13. Fast Boogie (Alternate Take 2) (02:57)
14. Fast Boogie (Alternate Take 3) (03:00)
15. Don't Need No Horse (03:15)
16. Driftin' (03:12)
17. Driftin' (Alternate Take) (03:08)
18. Don't Have To Hunt No More (03:01)
19. Crazy Legs (03:23)
20. Tonight With A Fool (02:53)
21. Off The Wall (Alternate Take) (02:55)
22. Off The Wall (02:50)
23. Tell Me Mama (02:45)
24. Quarter To Twelve (03:13)
25. That's It (03:10)


EAC log CD1
Exact Audio Copy V0.99 prebeta 4 from 23. January 2008

EAC extraction logfile from 21. April 2009, 22:05

Little Walter / The Complete Chess Masters 1950-1967 (Disc 1)

Used drive : BENQ DVD DC DW1670 Adapter: 1 ID: 0

Read mode : Secure
Utilize accurate stream : Yes
Defeat audio cache : Yes
Make use of C2 pointers : No

Read offset correction : 102
Overread into Lead-In and Lead-Out : No
Fill up missing offset samples with silence : Yes
Delete leading and trailing silent blocks : No
Null samples used in CRC calculations : Yes
Used interface : Installed external ASPI interface
Gap handling : Appended to previous track

Used output format : User Defined Encoder
Selected bitrate : 256 kBit/s
Quality : High
Add ID3 tag : No
Command line compressor : C:ProgramFLACflac.exe
Additional command line options : -8 -V -T "ARTIST=%a" -T "TITLE=%t" -T "ALBUM=%g" -T "DATE=%y" -T "TRACKNUMBER=%n" -T "GENRE=%m" -T "COMMENT=EAC FLAC -8" %s TOC of the extracted CD

Track | Start | Length | Start sector | End sector
---------------------------------------------------------
1 | 0:00.00 | 2:14.08 | 0 | 10057
2 | 2:14.08 | 2:45.01 | 10058 | 22433
3 | 4:59.09 | 2:57.50 | 22434 | 35758
4 | 7:56.59 | 3:01.05 | 35759 | 49338
5 | 10:57.64 | 2:51.61 | 49339 | 62224
6 | 13:49.50 | 3:02.68 | 62225 | 75942
7 | 16:52.43 | 2:59.64 | 75943 | 89431
8 | 19:52.32 | 3:01.35 | 89432 | 103041
9 | 22:53.67 | 2:55.33 | 103042 | 116199
10 | 25:49.25 | 3:12.46 | 116200 | 130645
11 | 29:01.71 | 2:48.12 | 130646 | 143257
12 | 31:50.08 | 3:13.50 | 143258 | 157782
13 | 35:03.58 | 2:57.11 | 157783 | 171068
14 | 38:00.69 | 3:00.17 | 171069 | 184585
15 | 41:01.11 | 3:15.37 | 184586 | 199247
16 | 44:16.48 | 3:12.29 | 199248 | 213676
17 | 47:29.02 | 3:08.04 | 213677 | 227780
18 | 50:37.06 | 3:01.66 | 227781 | 241421
19 | 53:38.72 | 3:23.14 | 241422 | 256660
20 | 57:02.11 | 2:53.06 | 256661 | 269641
21 | 59:55.17 | 2:55.63 | 269642 | 282829
22 | 62:51.05 | 2:50.00 | 282830 | 295579
23 | 65:41.05 | 2:45.38 | 295580 | 307992
24 | 68:26.43 | 3:13.45 | 307993 | 322512
25 | 71:40.13 | 3:10.43 | 322513 | 336805 Track 1

Filename C:Documents and SettingsellroySkrivbordLittle Walter - The Complete Chess Masters 1950-1967 (2009) [FLAC]CD11 - Evans Shuffle.wav

Pre-gap length 0:00:02.00

Peak level 98.8 %
Track quality 100.0 %
Test CRC D245E39D
Copy CRC D245E39D
Track not present in AccurateRip database
Copy OK

Track 2

Filename C:Documents and SettingsellroySkrivbordLittle Walter - The Complete Chess Masters 1950-1967 (2009) [FLAC]CD12 - Juke.wav

Pre-gap length 0:00:01.96

Peak level 97.5 %
Track quality 99.9 %
Test CRC 18675C4F
Copy CRC 18675C4F
Track not present in AccurateRip database
Copy OK

Track 3

Filename C:Documents and SettingsellroySkrivbordLittle Walter - The Complete Chess Masters 1950-1967 (2009) [FLAC]CD13 - Juke (Alternate Take).wav

Pre-gap length 0:00:01.96

Peak level 87.0 %
Track quality 99.9 %
Test CRC 9F744910
Copy CRC 9F744910
Track not present in AccurateRip database
Copy OK

Track 4

Filename C:Documents and SettingsellroySkrivbordLittle Walter - The Complete Chess Masters 1950-1967 (2009) [FLAC]CD14 - Can't Hold Out Much Longer.wav

Pre-gap length 0:00:01.96

Peak level 95.4 %
Track quality 100.0 %
Test CRC BC38D84C
Copy CRC BC38D84C
Track not present in AccurateRip database
Copy OK

Track 5

Filename C:Documents and SettingsellroySkrivbordLittle Walter - The Complete Chess Masters 1950-1967 (2009) [FLAC]CD15 - Can't Hold Out Much Longer (Alternate Take).wav

Pre-gap length 0:00:01.96

Peak level 97.2 %
Track quality 100.0 %
Test CRC 727B364C
Copy CRC 727B364C
Track not present in AccurateRip database
Copy OK

Track 6

Filename C:Documents and SettingsellroySkrivbordLittle Walter - The Complete Chess Masters 1950-1967 (2009) [FLAC]CD16 - Blue Midnight (Alternate Take).wav

Pre-gap length 0:00:01.96

Peak level 100.0 %
Track quality 100.0 %
Test CRC 8A299A82
Copy CRC 8A299A82
Track not present in AccurateRip database
Copy OK

Track 7

Filename C:Documents and SettingsellroySkrivbordLittle Walter - The Complete Chess Masters 1950-1967 (2009) [FLAC]CD17 - Blue Midnight.wav

Pre-gap length 0:00:01.97

Peak level 100.0 %
Track quality 100.0 %
Test CRC 853A9FB9
Copy CRC 853A9FB9
Track not present in AccurateRip database
Copy OK

Track 8

Filename C:Documents and SettingsellroySkrivbordLittle Walter - The Complete Chess Masters 1950-1967 (2009) [FLAC]CD18 - Boogie.wav

Pre-gap length 0:00:01.96

Peak level 97.3 %
Track quality 100.0 %
Test CRC 6252F9CA
Copy CRC 6252F9CA
Track not present in AccurateRip database
Copy OK

Track 9

Filename C:Documents and SettingsellroySkrivbordLittle Walter - The Complete Chess Masters 1950-1967 (2009) [FLAC]CD19 - Mean Old World.wav

Pre-gap length 0:00:01.96

Peak level 96.1 %
Track quality 100.0 %
Test CRC 7831F55E
Copy CRC 7831F55E
Track not present in AccurateRip database
Copy OK

Track 10

Filename C:Documents and SettingsellroySkrivbordLittle Walter - The Complete Chess Masters 1950-1967 (2009) [FLAC]CD110 - Sad Hours.wav

Pre-gap length 0:00:01.96

Peak level 94.2 %
Track quality 99.9 %
Test CRC B43DCC3A
Copy CRC B43DCC3A
Track not present in AccurateRip database
Copy OK

Track 11

Filename C:Documents and SettingsellroySkrivbordLittle Walter - The Complete Chess Masters 1950-1967 (2009) [FLAC]CD111 - Fast Boogie.wav

Pre-gap length 0:00:01.97

Peak level 99.9 %
Track quality 100.0 %
Test CRC 95290CDE
Copy CRC 95290CDE
Track not present in AccurateRip database
Copy OK

Track 12

Filename C:Documents and SettingsellroySkrivbordLittle Walter - The Complete Chess Masters 1950-1967 (2009) [FLAC]CD112 - Fast Boogie (Alternate Take 1).wav

Pre-gap length 0:00:01.96

Peak level 94.6 %
Track quality 100.0 %
Test CRC 282BCA85
Copy CRC 282BCA85
Track not present in AccurateRip database
Copy OK

Track 13

Filename C:Documents and SettingsellroySkrivbordLittle Walter - The Complete Chess Masters 1950-1967 (2009) [FLAC]CD113 - Fast Boogie (Alternate Take 2).wav

Pre-gap length 0:00:01.77

Peak level 99.9 %
Track quality 100.0 %
Test CRC A1274396
Copy CRC A1274396
Track not present in AccurateRip database
Copy OK

Track 14

Filename C:Documents and SettingsellroySkrivbordLittle Walter - The Complete Chess Masters 1950-1967 (2009) [FLAC]CD114 - Fast Boogie (Alternate Take 3).wav

Pre-gap length 0:00:01.96

Peak level 94.2 %
Track quality 100.0 %
Test CRC 88B4881A
Copy CRC 88B4881A
Track not present in AccurateRip database
Copy OK

Track 15

Filename C:Documents and SettingsellroySkrivbordLittle Walter - The Complete Chess Masters 1950-1967 (2009) [FLAC]CD115 - Don't Need No Horse.wav

Pre-gap length 0:00:01.96

Peak level 95.3 %
Track quality 100.0 %
Test CRC 4055FE5B
Copy CRC 4055FE5B
Track not present in AccurateRip database
Copy OK

Track 16

Filename C:Documents and SettingsellroySkrivbordLittle Walter - The Complete Chess Masters 1950-1967 (2009) [FLAC]CD116 - Driftin'.wav

Pre-gap length 0:00:01.97

Peak level 100.0 %
Track quality 100.0 %
Test CRC 92433102
Copy CRC 92433102
Track not present in AccurateRip database
Copy OK

Track 17

Filename C:Documents and SettingsellroySkrivbordLittle Walter - The Complete Chess Masters 1950-1967 (2009) [FLAC]CD117 - Driftin' (Alternate Take).wav

Pre-gap length 0:00:03.97

Peak level 100.0 %
Track quality 100.0 %
Test CRC 3B76207A
Copy CRC 3B76207A
Track not present in AccurateRip database
Copy OK

Track 18

Filename C:Documents and SettingsellroySkrivbordLittle Walter - The Complete Chess Masters 1950-1967 (2009) [FLAC]CD118 - Don't Have To Hunt No More.wav

Pre-gap length 0:00:01.97

Peak level 95.7 %
Track quality 100.0 %
Test CRC C88AEF3C
Copy CRC C88AEF3C
Track not present in AccurateRip database
Copy OK

Track 19

Filename C:Documents and SettingsellroySkrivbordLittle Walter - The Complete Chess Masters 1950-1967 (2009) [FLAC]CD119 - Crazy Legs.wav

Pre-gap length 0:00:01.96

Peak level 92.7 %
Track quality 99.9 %
Test CRC 22B1392C
Copy CRC 22B1392C
Track not present in AccurateRip database
Copy OK

Track 20

Filename C:Documents and SettingsellroySkrivbordLittle Walter - The Complete Chess Masters 1950-1967 (2009) [FLAC]CD120 - Tonight With A Fool.wav

Pre-gap length 0:00:01.96

Peak level 93.3 %
Track quality 100.0 %
Test CRC C30D4786
Copy CRC C30D4786
Track not present in AccurateRip database
Copy OK

Track 21

Filename C:Documents and SettingsellroySkrivbordLittle Walter - The Complete Chess Masters 1950-1967 (2009) [FLAC]CD121 - Off The Wall (Alternate Take).wav

Pre-gap length 0:00:01.96

Peak level 98.8 %
Track quality 100.0 %
Test CRC 5428FC45
Copy CRC 5428FC45
Track not present in AccurateRip database
Copy OK

Track 22

Filename C:Documents and SettingsellroySkrivbordLittle Walter - The Complete Chess Masters 1950-1967 (2009) [FLAC]CD122 - Off The Wall.wav

Pre-gap length 0:00:01.96

Peak level 99.4 %
Track quality 99.9 %
Test CRC 3A9F39E0
Copy CRC 3A9F39E0
Track not present in AccurateRip database
Copy OK

Track 23

Filename C:Documents and SettingsellroySkrivbordLittle Walter - The Complete Chess Masters 1950-1967 (2009) [FLAC]CD123 - Tell Me Mama.wav

Pre-gap length 0:00:01.97

Peak level 100.0 %
Track quality 100.0 %
Test CRC 822862D4
Copy CRC 822862D4
Track not present in AccurateRip database
Copy OK

Track 24

Filename C:Documents and SettingsellroySkrivbordLittle Walter - The Complete Chess Masters 1950-1967 (2009) [FLAC]CD124 - Quarter To Twelve.wav

Pre-gap length 0:00:01.96

Peak level 100.0 %
Track quality 99.9 %
Test CRC 4E80C6FA
Copy CRC 4E80C6FA
Track not present in AccurateRip database
Copy OK

Track 25

Filename C:Documents and SettingsellroySkrivbordLittle Walter - The Complete Chess Masters 1950-1967 (2009) [FLAC]CD125 - That's It.wav

Pre-gap length 0:00:01.96

Peak level 76.7 %
Track quality 99.8 %
Test CRC 423AB717
Copy CRC 423AB717
Track not present in AccurateRip database
Copy OK None of the tracks are present in the AccurateRip database

No errors occurred

End of status report

DR log CD1
foobar2000 1.3.8 / Dynamic Range Meter 1.1.1
log date: 2015-05-15 20:44:47

--------------------------------------------------------------------------------
Analyzed: Little Walter / The Complete Chess Masters 1950-1967 (Disc 1)
--------------------------------------------------------------------------------

DR Peak RMS Duration Track
--------------------------------------------------------------------------------
DR11 -0.10 dB -14.28 dB 2:14 01-Evans Shuffle
DR13 -0.21 dB -15.27 dB 2:45 02-Juke
DR11 -1.20 dB -13.97 dB 2:58 03-Juke (Alternate Take)
DR11 -0.41 dB -14.50 dB 3:01 04-Can't Hold Out Much Longer
DR11 -0.24 dB -13.06 dB 2:52 05-Can't Hold Out Much Longer (Alternate Take)
DR9 0.00 dB -12.09 dB 3:03 06-Blue Midnight (Alternate Take)
DR10 0.00 dB -12.13 dB 3:00 07-Blue Midnight
DR9 -0.23 dB -10.85 dB 3:01 08-Boogie
DR11 -0.34 dB -13.82 dB 2:55 09-Mean Old World
DR11 -0.52 dB -13.05 dB 3:13 10-Sad Hours
DR11 0.00 dB -13.62 dB 2:48 11-Fast Boogie
DR9 -0.48 dB -11.81 dB 3:14 12-Fast Boogie (Alternate Take 1)
DR11 0.00 dB -13.00 dB 2:57 13-Fast Boogie (Alternate Take 2)
DR10 -0.52 dB -12.63 dB 3:00 14-Fast Boogie (Alternate Take 3)
DR12 -0.41 dB -13.95 dB 3:15 15-Don't Need No Horse
DR11 0.00 dB -13.83 dB 3:12 16-Driftin'
DR12 0.00 dB -14.01 dB 3:08 17-Driftin' (Alternate Take)
DR11 -0.38 dB -13.06 dB 3:02 18-Don't Have To Hunt No More
DR10 -0.66 dB -11.51 dB 3:23 19-Crazy Legs
DR10 -0.60 dB -12.09 dB 2:53 20-Tonight With A Fool
DR9 -0.10 dB -11.90 dB 2:56 21-Off The Wall (Alternate Take)
DR12 -0.05 dB -13.62 dB 2:50 22-Off The Wall
DR12 0.00 dB -13.72 dB 2:46 23-Tell Me Mama
DR12 0.00 dB -14.96 dB 3:14 24-Quarter To Twelve
DR8 -2.29 dB -11.93 dB 3:11 25-That's It
--------------------------------------------------------------------------------

Number of tracks: 25
Official DR value: DR11

Samplerate: 44100 Hz
Channels: 2
Bits per sample: 16
Bitrate: 577 kbps
Codec: FLAC
================================================================================


----------------------------------------------------------------------



Tracklist CD2:

01. Blues With A Feeling (Alternate Take) (02:56)
02. Blues With A Feeling (03:07)
03. Last Boogie (02:32)
04. Too Late (02:41)
05. Fast Boogie (02:52)
06. Lights Out (02:46)
07. Fast Large One (02:51)
08. You're So Fine (03:05)
09. My Kind Of Baby (03:08)
10. Come Back Baby (02:54)
11. Rocker (03:07)
12. I Love You So (Oh Baby) (02:33)
13. Oh Baby (02:46)
14. I Got To Find My Baby (Alternate Take) (03:07)
15. I Got To Find My Baby (02:49)
16. Big Leg Mama (02:47)
17. Mercy Babe (My Babe) (03:18)
18. Last Night (First Version) (02:54)
19. You'd Better Watch Yourself (03:04)
20. Blue Light (03:14)
21. Instrumental (02:55)
22. Last Night (02:44)
23. Mellow Down Easy (02:43)
24. My Babe (02:42)
25. My Babe (Overdubbed Version) (02:31)


EAC log CD2
Exact Audio Copy V0.99 prebeta 4 from 23. January 2008

EAC extraction logfile from 21. April 2009, 20:28

Little Walter / The Complete Chess Masters 1950-1967 (Disc 2)

Used drive : BENQ DVD DC DW1670 Adapter: 1 ID: 0

Read mode : Secure
Utilize accurate stream : Yes
Defeat audio cache : Yes
Make use of C2 pointers : No

Read offset correction : 102
Overread into Lead-In and Lead-Out : No
Fill up missing offset samples with silence : Yes
Delete leading and trailing silent blocks : No
Null samples used in CRC calculations : Yes
Used interface : Installed external ASPI interface
Gap handling : Appended to previous track

Used output format : User Defined Encoder
Selected bitrate : 256 kBit/s
Quality : High
Add ID3 tag : No
Command line compressor : C:ProgramFLACflac.exe
Additional command line options : -8 -V -T "ARTIST=%a" -T "TITLE=%t" -T "ALBUM=%g" -T "DATE=%y" -T "TRACKNUMBER=%n" -T "GENRE=%m" -T "COMMENT=EAC FLAC -8" %s TOC of the extracted CD

Track | Start | Length | Start sector | End sector
---------------------------------------------------------
1 | 0:00.00 | 2:56.09 | 0 | 13208
2 | 2:56.09 | 3:07.55 | 13209 | 27288
3 | 6:03.64 | 2:32.47 | 27289 | 38735
4 | 8:36.36 | 2:41.56 | 38736 | 50866
5 | 11:18.17 | 2:52.30 | 50867 | 63796
6 | 14:10.47 | 2:46.09 | 63797 | 76255
7 | 16:56.56 | 2:50.72 | 76256 | 89077
8 | 19:47.53 | 3:04.74 | 89078 | 102951
9 | 22:52.52 | 3:08.12 | 102952 | 117063
10 | 26:00.64 | 2:54.50 | 117064 | 130163
11 | 28:55.39 | 3:07.28 | 130164 | 144216
12 | 32:02.67 | 2:33.24 | 144217 | 155715
13 | 34:36.16 | 2:46.07 | 155716 | 168172
14 | 37:22.23 | 3:07.39 | 168173 | 182236
15 | 40:29.62 | 2:48.73 | 182237 | 194909
16 | 43:18.60 | 2:47.62 | 194910 | 207496
17 | 46:06.47 | 3:18.64 | 207497 | 222410
18 | 49:25.36 | 2:54.37 | 222411 | 235497
19 | 52:19.73 | 3:04.52 | 235498 | 249349
20 | 55:24.50 | 3:14.44 | 249350 | 263943
21 | 58:39.19 | 2:55.39 | 263944 | 277107
22 | 61:34.58 | 2:44.58 | 277108 | 289465
23 | 64:19.41 | 2:43.20 | 289466 | 301710
24 | 67:02.61 | 2:42.10 | 301711 | 313870
25 | 69:44.71 | 2:30.71 | 313871 | 325191 Track 1

Filename C:Documents and SettingsellroySkrivbordLittle Walter - The Complete Chess Masters 1950-1967 (2009) [FLAC]CD21 - Blues With A Feeling (Alternate Take).wav

Pre-gap length 0:00:02.00

Peak level 68.1 %
Track quality 100.0 %
Test CRC F9466C1B
Copy CRC F9466C1B
Track not present in AccurateRip database
Copy OK

Track 2

Filename C:Documents and SettingsellroySkrivbordLittle Walter - The Complete Chess Masters 1950-1967 (2009) [FLAC]CD22 - Blues With A Feeling.wav

Pre-gap length 0:00:01.94

Peak level 100.0 %
Track quality 100.0 %
Test CRC 57FF384F
Copy CRC 57FF384F
Track not present in AccurateRip database
Copy OK

Track 3

Filename C:Documents and SettingsellroySkrivbordLittle Walter - The Complete Chess Masters 1950-1967 (2009) [FLAC]CD23 - Last Boogie.wav

Pre-gap length 0:00:01.96

Peak level 92.8 %
Track quality 100.0 %
Test CRC E1695A86
Copy CRC E1695A86
Track not present in AccurateRip database
Copy OK

Track 4

Filename C:Documents and SettingsellroySkrivbordLittle Walter - The Complete Chess Masters 1950-1967 (2009) [FLAC]CD24 - Too Late.wav

Pre-gap length 0:00:01.96

Peak level 96.2 %
Track quality 100.0 %
Test CRC A646B9CB
Copy CRC A646B9CB
Track not present in AccurateRip database
Copy OK

Track 5

Filename C:Documents and SettingsellroySkrivbordLittle Walter - The Complete Chess Masters 1950-1967 (2009) [FLAC]CD25 - Fast Boogie.wav

Pre-gap length 0:00:01.96

Peak level 88.1 %
Track quality 100.0 %
Test CRC 28B82B97
Copy CRC 28B82B97
Track not present in AccurateRip database
Copy OK

Track 6

Filename C:Documents and SettingsellroySkrivbordLittle Walter - The Complete Chess Masters 1950-1967 (2009) [FLAC]CD26 - Lights Out.wav

Pre-gap length 0:00:01.88

Peak level 93.3 %
Track quality 100.0 %
Test CRC BA58BF7A
Copy CRC BA58BF7A
Track not present in AccurateRip database
Copy OK

Track 7

Filename C:Documents and SettingsellroySkrivbordLittle Walter - The Complete Chess Masters 1950-1967 (2009) [FLAC]CD27 - Fast Large One.wav

Pre-gap length 0:00:01.97

Peak level 100.0 %
Track quality 100.0 %
Test CRC 61B4710A
Copy CRC 61B4710A
Track not present in AccurateRip database
Copy OK

Track 8

Filename C:Documents and SettingsellroySkrivbordLittle Walter - The Complete Chess Masters 1950-1967 (2009) [FLAC]CD28 - You're So Fine.wav

Pre-gap length 0:00:01.96

Peak level 100.0 %
Track quality 100.0 %
Test CRC 6CA2B2AF
Copy CRC 6CA2B2AF
Track not present in AccurateRip database
Copy OK

Track 9

Filename C:Documents and SettingsellroySkrivbordLittle Walter - The Complete Chess Masters 1950-1967 (2009) [FLAC]CD29 - My Kind Of Baby.wav

Pre-gap length 0:00:01.89

Peak level 95.5 %
Track quality 100.0 %
Test CRC 5A4CBB85
Copy CRC 5A4CBB85
Track not present in AccurateRip database
Copy OK

Track 10

Filename C:Documents and SettingsellroySkrivbordLittle Walter - The Complete Chess Masters 1950-1967 (2009) [FLAC]CD210 - Come Back Baby.wav

Pre-gap length 0:00:01.93

Peak level 94.5 %
Track quality 99.9 %
Test CRC 02DEF00E
Copy CRC 02DEF00E
Track not present in AccurateRip database
Copy OK

Track 11

Filename C:Documents and SettingsellroySkrivbordLittle Walter - The Complete Chess Masters 1950-1967 (2009) [FLAC]CD211 - Rocker.wav

Pre-gap length 0:00:01.96

Peak level 90.1 %
Track quality 100.0 %
Test CRC FC153E20
Copy CRC FC153E20
Track not present in AccurateRip database
Copy OK

Track 12

Filename C:Documents and SettingsellroySkrivbordLittle Walter - The Complete Chess Masters 1950-1967 (2009) [FLAC]CD212 - I Love You So (Oh Baby).wav

Pre-gap length 0:00:01.96

Peak level 97.7 %
Track quality 100.0 %
Test CRC 31EEA0D2
Copy CRC 31EEA0D2
Track not present in AccurateRip database
Copy OK

Track 13

Filename C:Documents and SettingsellroySkrivbordLittle Walter - The Complete Chess Masters 1950-1967 (2009) [FLAC]CD213 - Oh Baby.wav

Pre-gap length 0:00:01.96

Peak level 92.0 %
Track quality 100.0 %
Test CRC EC7E791A
Copy CRC EC7E791A
Track not present in AccurateRip database
Copy OK

Track 14

Filename C:Documents and SettingsellroySkrivbordLittle Walter - The Complete Chess Masters 1950-1967 (2009) [FLAC]CD214 - I Got To Find My Baby (Alternate Take).wav

Pre-gap length 0:00:01.92

Peak level 98.8 %
Track quality 100.0 %
Test CRC DA2812EC
Copy CRC DA2812EC
Track not present in AccurateRip database
Copy OK

Track 15

Filename C:Documents and SettingsellroySkrivbordLittle Walter - The Complete Chess Masters 1950-1967 (2009) [FLAC]CD215 - I Got To Find My Baby.wav

Pre-gap length 0:00:01.97

Peak level 100.0 %
Track quality 100.0 %
Test CRC 9081FBD8
Copy CRC 9081FBD8
Track not present in AccurateRip database
Copy OK

Track 16

Filename C:Documents and SettingsellroySkrivbordLittle Walter - The Complete Chess Masters 1950-1967 (2009) [FLAC]CD216 - Big Leg Mama.wav

Pre-gap length 0:00:01.90

Peak level 98.8 %
Track quality 100.0 %
Test CRC 6F3B0B66
Copy CRC 6F3B0B66
Track not present in AccurateRip database
Copy OK

Track 17

Filename C:Documents and SettingsellroySkrivbordLittle Walter - The Complete Chess Masters 1950-1967 (2009) [FLAC]CD217 - Mercy Babe (My Babe).wav

Pre-gap length 0:00:01.96

Peak level 100.0 %
Track quality 100.0 %
Test CRC 47CD7110
Copy CRC 47CD7110
Track not present in AccurateRip database
Copy OK

Track 18

Filename C:Documents and SettingsellroySkrivbordLittle Walter - The Complete Chess Masters 1950-1967 (2009) [FLAC]CD218 - Last Night (First Version).wav

Pre-gap length 0:00:01.96

Peak level 100.0 %
Track quality 100.0 %
Test CRC E083E33B
Copy CRC E083E33B
Track not present in AccurateRip database
Copy OK

Track 19

Filename C:Documents and SettingsellroySkrivbordLittle Walter - The Complete Chess Masters 1950-1967 (2009) [FLAC]CD219 - You'd Better Watch Yourself.wav

Pre-gap length 0:00:01.90

Peak level 100.0 %
Track quality 100.0 %
Test CRC 9F8C7E8E
Copy CRC 9F8C7E8E
Track not present in AccurateRip database
Copy OK

Track 20

Filename C:Documents and SettingsellroySkrivbordLittle Walter - The Complete Chess Masters 1950-1967 (2009) [FLAC]CD220 - Blue Light.wav

Pre-gap length 0:00:01.89

Peak level 100.0 %
Track quality 99.9 %
Test CRC E6BD6C6E
Copy CRC E6BD6C6E
Track not present in AccurateRip database
Copy OK

Track 21

Filename C:Documents and SettingsellroySkrivbordLittle Walter - The Complete Chess Masters 1950-1967 (2009) [FLAC]CD221 - Instrumental.wav

Pre-gap length 0:00:01.90

Peak level 73.2 %
Track quality 100.0 %
Test CRC 642269DB
Copy CRC 642269DB
Track not present in AccurateRip database
Copy OK

Track 22

Filename C:Documents and SettingsellroySkrivbordLittle Walter - The Complete Chess Masters 1950-1967 (2009) [FLAC]CD222 - Last Night.wav

Pre-gap length 0:00:01.92

Peak level 97.1 %
Track quality 100.0 %
Test CRC 4374AFF7
Copy CRC 4374AFF7
Track not present in AccurateRip database
Copy OK

Track 23

Filename C:Documents and SettingsellroySkrivbordLittle Walter - The Complete Chess Masters 1950-1967 (2009) [FLAC]CD223 - Mellow Down Easy.wav

Pre-gap length 0:00:01.96

Peak level 100.0 %
Track quality 99.9 %
Test CRC E460A380
Copy CRC E460A380
Track not present in AccurateRip database
Copy OK

Track 24

Filename C:Documents and SettingsellroySkrivbordLittle Walter - The Complete Chess Masters 1950-1967 (2009) [FLAC]CD224 - My Babe.wav

Pre-gap length 0:00:01.93

Peak level 93.0 %
Track quality 99.6 %
Test CRC DA534272
Copy CRC DA534272
Track not present in AccurateRip database
Copy OK

Track 25

Filename C:Documents and SettingsellroySkrivbordLittle Walter - The Complete Chess Masters 1950-1967 (2009) [FLAC]CD225 - My Babe (Overdubbed Version).wav

Pre-gap length 0:00:01.94

Peak level 86.3 %
Track quality 99.9 %
Test CRC 27D65349
Copy CRC 27D65349
Track not present in AccurateRip database
Copy OK None of the tracks are present in the AccurateRip database

No errors occurred

End of status report

DR log CD2
foobar2000 1.3.8 / Dynamic Range Meter 1.1.1
log date: 2015-05-15 20:45:56

--------------------------------------------------------------------------------
Analyzed: Little Walter / The Complete Chess Masters 1950-1967 (Disc 2)
--------------------------------------------------------------------------------

DR Peak RMS Duration Track
--------------------------------------------------------------------------------
DR8 -3.33 dB -13.41 dB 2:56 01-Blues With A Feeling (Alternate Take)
DR11 0.00 dB -14.40 dB 3:08 02-Blues With A Feeling
DR10 -0.65 dB -12.70 dB 2:33 03-Last Boogie
DR12 -0.33 dB -15.20 dB 2:42 04-Too Late
DR10 -1.10 dB -12.90 dB 2:52 05-Fast Boogie
DR11 -0.60 dB -13.66 dB 2:46 06-Lights Out
DR12 0.00 dB -14.23 dB 2:51 07-Fast Large One
DR12 0.00 dB -14.49 dB 3:05 08-You're So Fine
DR10 -0.40 dB -12.33 dB 3:08 09-My Kind Of Baby
DR10 -0.48 dB -11.27 dB 2:55 10-Come Back Baby
DR11 -0.90 dB -13.73 dB 3:07 11-Rocker
DR12 -0.20 dB -13.86 dB 2:33 12-I Love You So (Oh Baby)
DR12 -0.72 dB -13.54 dB 2:46 13-Oh Baby
DR13 -0.10 dB -14.97 dB 3:08 14-I Got To Find My Baby (Alternate Take)
DR11 0.00 dB -13.28 dB 2:49 15-I Got To Find My Baby
DR12 -0.10 dB -12.73 dB 2:48 16-Big Leg Mama
DR11 0.00 dB -13.17 dB 3:19 17-Mercy Babe (My Babe)
DR12 0.00 dB -15.35 dB 2:54 18-Last Night (First Version)
DR12 0.00 dB -14.14 dB 3:05 19-You'd Better Watch Yourself
DR10 0.00 dB -13.06 dB 3:15 20-Blue Light
DR8 -2.70 dB -12.12 dB 2:56 21-Instrumental
DR10 -0.25 dB -13.16 dB 2:45 22-Last Night
DR11 0.00 dB -13.03 dB 2:43 23-Mellow Down Easy
DR11 -0.63 dB -13.65 dB 2:42 24-My Babe
DR10 -1.27 dB -13.44 dB 2:31 25-My Babe (Overdubbed Version)
--------------------------------------------------------------------------------

Number of tracks: 25
Official DR value: DR11

Samplerate: 44100 Hz
Channels: 2
Bits per sample: 16
Bitrate: 622 kbps
Codec: FLAC
================================================================================


----------------------------------------------------------------------



Tracklist CD3:

01. Thunderbird (02:48)
02. Roller Coaster (02:53)
03. I Got To Go (02:41)
04. Hate To See You Go (Extended) (03:05)
05. Little Girl (03:06)
06. Crazy For My Baby (03:01)
07. Can't Stop Loving You (02:48)
08. One More Chance With You (02:55)
09. Who (02:24)
10. Boom, Boom Out Go The Lights (02:51)
11. It Ain't Right (02:55)
12. Flying Saucer (03:03)
13. It's Too Late Brother (02:43)
14. Teenage Beat (03:02)
15. Take Me Back (03:06)
16. Just A Feeling (02:54)
17. Nobody But You (02:07)
18. Temperature (Version 1) (01:59)
19. Shake Dancer (02:44)
20. 20. Everybody Needs Somebody (02:53)
21. Temperature (Alternate 1) (02:15)
22. Temperature (Alternate 2) (02:16)
23. Temperature (Take 30) (03:28)
24. Temperature (Take 35-38) (04:54)
25. Temperature (Version 2) (02:40)
26. Ah'w Baby (Alternate Take) (02:50)


EAC log CD3
Exact Audio Copy V0.99 prebeta 4 from 23. January 2008

EAC extraction logfile from 22. April 2009, 20:26

Little Walter / The Complete Chess Masters 1950-1967 (Disc 3)

Used drive : BENQ DVD DC DW1670 Adapter: 1 ID: 0

Read mode : Secure
Utilize accurate stream : Yes
Defeat audio cache : Yes
Make use of C2 pointers : No

Read offset correction : 102
Overread into Lead-In and Lead-Out : No
Fill up missing offset samples with silence : Yes
Delete leading and trailing silent blocks : No
Null samples used in CRC calculations : Yes
Used interface : Installed external ASPI interface
Gap handling : Appended to previous track

Used output format : User Defined Encoder
Selected bitrate : 256 kBit/s
Quality : High
Add ID3 tag : No
Command line compressor : C:ProgramFLACflac.exe
Additional command line options : -8 -V -T "ARTIST=%a" -T "TITLE=%t" -T "ALBUM=%g" -T "DATE=%y" -T "TRACKNUMBER=%n" -T "GENRE=%m" -T "COMMENT=EAC FLAC -8" %s TOC of the extracted CD

Track | Start | Length | Start sector | End sector
---------------------------------------------------------
1 | 0:00.00 | 2:48.50 | 0 | 12649
2 | 2:48.50 | 2:53.57 | 12650 | 25681
3 | 5:42.32 | 2:41.62 | 25682 | 37818
4 | 8:24.19 | 3:04.73 | 37819 | 51691
5 | 11:29.17 | 3:06.63 | 51692 | 65704
6 | 14:36.05 | 3:01.42 | 65705 | 79321
7 | 17:37.47 | 2:48.63 | 79322 | 91984
8 | 20:26.35 | 2:55.22 | 91985 | 105131
9 | 23:21.57 | 2:24.05 | 105132 | 115936
10 | 25:45.62 | 2:51.16 | 115937 | 128777
11 | 28:37.03 | 2:54.73 | 128778 | 141900
12 | 31:32.01 | 3:03.02 | 141901 | 155627
13 | 34:35.03 | 2:43.40 | 155628 | 167892
14 | 37:18.43 | 3:02.16 | 167893 | 181558
15 | 40:20.59 | 3:06.16 | 181559 | 195524
16 | 43:27.00 | 2:54.27 | 195525 | 208601
17 | 46:21.27 | 2:07.04 | 208602 | 218130
18 | 48:28.31 | 1:59.29 | 218131 | 227084
19 | 50:27.60 | 2:44.58 | 227085 | 239442
20 | 53:12.43 | 2:53.60 | 239443 | 252477
21 | 56:06.28 | 2:15.07 | 252478 | 262609
22 | 58:21.35 | 2:16.41 | 262610 | 272850
23 | 60:38.01 | 3:28.05 | 272851 | 288455
24 | 64:06.06 | 4:54.57 | 288456 | 310562
25 | 69:00.63 | 2:40.33 | 310563 | 322595
26 | 71:41.21 | 2:50.47 | 322596 | 335392 Track 1

Filename C:Documents and SettingsellroySkrivbordLittle Walter - The Complete Chess Masters 1950-1967 (2009) [FLAC]CD31 - Thunderbird.wav

Pre-gap length 0:00:02.00

Peak level 100.0 %
Track quality 99.9 %
Test CRC 61F0BC07
Copy CRC 61F0BC07
Track not present in AccurateRip database
Copy OK

Track 2

Filename C:Documents and SettingsellroySkrivbordLittle Walter - The Complete Chess Masters 1950-1967 (2009) [FLAC]CD32 - Roller Coaster.wav

Pre-gap length 0:00:01.97

Peak level 92.6 %
Track quality 100.0 %
Test CRC 9D3DA9F8
Copy CRC 9D3DA9F8
Track not present in AccurateRip database
Copy OK

Track 3

Filename C:Documents and SettingsellroySkrivbordLittle Walter - The Complete Chess Masters 1950-1967 (2009) [FLAC]CD33 - I Got To Go.wav

Pre-gap length 0:00:01.97

Peak level 96.2 %
Track quality 100.0 %
Test CRC 4282229A
Copy CRC 4282229A
Track not present in AccurateRip database
Copy OK

Track 4

Filename C:Documents and SettingsellroySkrivbordLittle Walter - The Complete Chess Masters 1950-1967 (2009) [FLAC]CD34 - Hate To See You Go (Extended).wav

Pre-gap length 0:00:01.97

Peak level 99.6 %
Track quality 99.9 %
Test CRC E3BB41AF
Copy CRC E3BB41AF
Track not present in AccurateRip database
Copy OK

Track 5

Filename C:Documents and SettingsellroySkrivbordLittle Walter - The Complete Chess Masters 1950-1967 (2009) [FLAC]CD35 - Little Girl.wav

Pre-gap length 0:00:01.97

Peak level 90.3 %
Track quality 100.0 %
Test CRC 919E0C0C
Copy CRC 919E0C0C
Track not present in AccurateRip database
Copy OK

Track 6

Filename C:Documents and SettingsellroySkrivbordLittle Walter - The Complete Chess Masters 1950-1967 (2009) [FLAC]CD36 - Crazy For My Baby.wav

Pre-gap length 0:00:01.97

Peak level 97.6 %
Track quality 100.0 %
Test CRC 4DB2B19F
Copy CRC 4DB2B19F
Track not present in AccurateRip database
Copy OK

Track 7

Filename C:Documents and SettingsellroySkrivbordLittle Walter - The Complete Chess Masters 1950-1967 (2009) [FLAC]CD37 - Can't Stop Loving You.wav

Pre-gap length 0:00:01.97

Peak level 94.4 %
Track quality 100.0 %
Test CRC 1B93AADB
Copy CRC 1B93AADB
Track not present in AccurateRip database
Copy OK

Track 8

Filename C:Documents and SettingsellroySkrivbordLittle Walter - The Complete Chess Masters 1950-1967 (2009) [FLAC]CD38 - One More Chance With You.wav

Pre-gap length 0:00:01.97

Peak level 98.8 %
Track quality 99.9 %
Test CRC B8C474DA
Copy CRC B8C474DA
Track not present in AccurateRip database
Copy OK

Track 9

Filename C:Documents and SettingsellroySkrivbordLittle Walter - The Complete Chess Masters 1950-1967 (2009) [FLAC]CD39 - Who.wav

Pre-gap length 0:00:01.96

Peak level 98.7 %
Track quality 100.0 %
Test CRC BE47DC64
Copy CRC BE47DC64
Track not present in AccurateRip database
Copy OK

Track 10

Filename C:Documents and SettingsellroySkrivbordLittle Walter - The Complete Chess Masters 1950-1967 (2009) [FLAC]CD310 - Boom, Boom Out Go The Lights.wav

Pre-gap length 0:00:01.84

Peak level 100.0 %
Track quality 100.0 %
Test CRC 9F7F61FE
Copy CRC 9F7F61FE
Track not present in AccurateRip database
Copy OK

Track 11

Filename C:Documents and SettingsellroySkrivbordLittle Walter - The Complete Chess Masters 1950-1967 (2009) [FLAC]CD311 - It Ain't Right.wav

Pre-gap length 0:00:01.85

Peak level 98.8 %
Track quality 99.9 %
Test CRC 3AA14F94
Copy CRC 3AA14F94
Track not present in AccurateRip database
Copy OK

Track 12

Filename C:Documents and SettingsellroySkrivbordLittle Walter - The Complete Chess Masters 1950-1967 (2009) [FLAC]CD312 - Flying Saucer.wav

Pre-gap length 0:00:01.84

Peak level 95.1 %
Track quality 100.0 %
Test CRC F18238F0
Copy CRC F18238F0
Track not present in AccurateRip database
Copy OK

Track 13

Filename C:Documents and SettingsellroySkrivbordLittle Walter - The Complete Chess Masters 1950-1967 (2009) [FLAC]CD313 - It's Too Late Brother.wav

Pre-gap length 0:00:01.90

Peak level 98.8 %
Track quality 100.0 %
Test CRC CD7F5DD1
Copy CRC CD7F5DD1
Track not present in AccurateRip database
Copy OK

Track 14

Filename C:Documents and SettingsellroySkrivbordLittle Walter - The Complete Chess Masters 1950-1967 (2009) [FLAC]CD314 - Teenage Beat.wav

Pre-gap length 0:00:01.96

Peak level 91.9 %
Track quality 100.0 %
Test CRC 6033FF15
Copy CRC 6033FF15
Track not present in AccurateRip database
Copy OK

Track 15

Filename C:Documents and SettingsellroySkrivbordLittle Walter - The Complete Chess Masters 1950-1967 (2009) [FLAC]CD315 - Take Me Back.wav

Pre-gap length 0:00:01.92

Peak level 98.8 %
Track quality 100.0 %
Test CRC 6D3C89DC
Copy CRC 6D3C89DC
Track not present in AccurateRip database
Copy OK

Track 16

Filename C:Documents and SettingsellroySkrivbordLittle Walter - The Complete Chess Masters 1950-1967 (2009) [FLAC]CD316 - Just A Feeling.wav

Pre-gap length 0:00:01.84

Peak level 98.8 %
Track quality 100.0 %
Test CRC 0CF78841
Copy CRC 0CF78841
Track not present in AccurateRip database
Copy OK

Track 17

Filename C:Documents and SettingsellroySkrivbordLittle Walter - The Complete Chess Masters 1950-1967 (2009) [FLAC]CD317 - Nobody But You.wav

Pre-gap length 0:00:01.85

Peak level 97.4 %
Track quality 100.0 %
Test CRC 9C233E98
Copy CRC 9C233E98
Track not present in AccurateRip database
Copy OK

Track 18

Filename C:Documents and SettingsellroySkrivbordLittle Walter - The Complete Chess Masters 1950-1967 (2009) [FLAC]CD318 - Temperature (Version 1).wav

Pre-gap length 0:00:01.92

Peak level 100.0 %
Track quality 100.0 %
Test CRC 385CA6DE
Copy CRC 385CA6DE
Track not present in AccurateRip database
Copy OK

Track 19

Filename C:Documents and SettingsellroySkrivbordLittle Walter - The Complete Chess Masters 1950-1967 (2009) [FLAC]CD319 - Shake Dancer.wav

Pre-gap length 0:00:01.84

Peak level 83.0 %
Track quality 100.0 %
Test CRC A39E4993
Copy CRC A39E4993
Track not present in AccurateRip database
Copy OK

Track 20

Filename C:Documents and SettingsellroySkrivbordLittle Walter - The Complete Chess Masters 1950-1967 (2009) [FLAC]CD320 - 20. Everybody Needs Somebody.wav

Pre-gap length 0:00:01.84

Peak level 100.0 %
Track quality 100.0 %
Test CRC 6FFACAC0
Copy CRC 6FFACAC0
Track not present in AccurateRip database
Copy OK

Track 21

Filename C:Documents and SettingsellroySkrivbordLittle Walter - The Complete Chess Masters 1950-1967 (2009) [FLAC]CD321 - Temperature (Alternate 1).wav

Pre-gap length 0:00:01.96

Peak level 93.2 %
Track quality 100.0 %
Test CRC 8DE15D0B
Copy CRC 8DE15D0B
Track not present in AccurateRip database
Copy OK

Track 22

Filename C:Documents and SettingsellroySkrivbordLittle Walter - The Complete Chess Masters 1950-1967 (2009) [FLAC]CD322 - Temperature (Alternate 2).wav

Pre-gap length 0:00:01.84

Peak level 98.8 %
Track quality 100.0 %
Test CRC 35B26220
Copy CRC 35B26220
Track not present in AccurateRip database
Copy OK

Track 23

Filename C:Documents and SettingsellroySkrivbordLittle Walter - The Complete Chess Masters 1950-1967 (2009) [FLAC]CD323 - Temperature (Take 30).wav

Pre-gap length 0:00:01.81

Peak level 98.8 %
Track quality 100.0 %
Test CRC 6D1E11B9
Copy CRC 6D1E11B9
Track not present in AccurateRip database
Copy OK

Track 24

Filename C:Documents and SettingsellroySkrivbordLittle Walter - The Complete Chess Masters 1950-1967 (2009) [FLAC]CD324 - Temperature (Take 35-38).wav

Pre-gap length 0:00:01.77

Peak level 98.8 %
Track quality 100.0 %
Test CRC CD824FED
Copy CRC CD824FED
Track not present in AccurateRip database
Copy OK

Track 25

Filename C:Documents and SettingsellroySkrivbordLittle Walter - The Complete Chess Masters 1950-1967 (2009) [FLAC]CD325 - Temperature (Version 2).wav

Pre-gap length 0:00:01.94

Peak level 99.3 %
Track quality 100.0 %
Test CRC 70EB7950
Copy CRC 70EB7950
Track not present in AccurateRip database
Copy OK

Track 26

Filename C:Documents and SettingsellroySkrivbordLittle Walter - The Complete Chess Masters 1950-1967 (2009) [FLAC]CD326 - Ah'w Baby (Alternate Take).wav

Pre-gap length 0:00:01.85

Peak level 96.0 %
Track quality 100.0 %
Test CRC 85A46B82
Copy CRC 85A46B82
Track not present in AccurateRip database
Copy OK None of the tracks are present in the AccurateRip database

No errors occurred

End of status report

DR log CD3
foobar2000 1.3.8 / Dynamic Range Meter 1.1.1
log date: 2015-05-15 20:47:12

--------------------------------------------------------------------------------
Analyzed: Little Walter / The Complete Chess Masters 1950-1967 (Disc 3)
--------------------------------------------------------------------------------

DR Peak RMS Duration Track
--------------------------------------------------------------------------------
DR11 0.00 dB -12.34 dB 2:49 01-Thunderbird
DR11 -0.66 dB -12.55 dB 2:54 02-Roller Coaster
DR10 -0.33 dB -11.59 dB 2:42 03-I Got To Go
DR10 -0.03 dB -11.71 dB 3:05 04-Hate To See You Go (Extended)
DR13 -0.89 dB -15.66 dB 3:07 05-Little Girl
DR9 -0.21 dB -10.84 dB 3:02 06-Crazy For My Baby
DR11 -0.50 dB -12.61 dB 2:49 07-Can't Stop Loving You
DR10 -0.10 dB -12.11 dB 2:55 08-One More Chance With You
DR11 -0.11 dB -12.84 dB 2:24 09-Who
DR10 0.00 dB -12.23 dB 2:51 10-Boom, Boom Out Go The Lights
DR12 -0.10 dB -13.92 dB 2:55 11-It Ain't Right
DR9 -0.43 dB -10.97 dB 3:03 12-Flying Saucer
DR11 -0.10 dB -13.51 dB 2:44 13-It's Too Late Brother
DR11 -0.73 dB -14.10 dB 3:02 14-Teenage Beat
DR10 -0.10 dB -12.93 dB 3:06 15-Take Me Back
DR11 -0.10 dB -13.85 dB 2:54 16-Just A Feeling
DR10 -0.22 dB -11.45 dB 2:07 17-Nobody But You
DR9 0.00 dB -11.01 dB 1:59 18-Temperature (Version 1)
DR11 -1.61 dB -13.14 dB 2:45 19-Shake Dancer
DR13 0.00 dB -14.31 dB 2:54 20-20. Everybody Needs Somebody
DR11 -0.61 dB -13.46 dB 2:15 21-Temperature (Alternate 1)
DR11 -0.10 dB -14.07 dB 2:17 22-Temperature (Alternate 2)
DR8 -0.10 dB -11.33 dB 3:28 23-Temperature (Take 30)
DR11 -0.10 dB -14.32 dB 4:55 24-Temperature (Take 35-38)
DR9 -0.05 dB -11.59 dB 2:40 25-Temperature (Version 2)
DR10 -0.35 dB -13.07 dB 2:51 26-Ah'w Baby (Alternate Take)
--------------------------------------------------------------------------------

Number of tracks: 26
Official DR value: DR11

Samplerate: 44100 Hz
Channels: 2
Bits per sample: 16
Bitrate: 519 kbps
Codec: FLAC
================================================================================


----------------------------------------------------------------------



Tracklist CD4:

01. Ah'w Baby (02:54)
02. I've Had My Fun (Alternate Take) (02:13)
03. I've Had My Fun (Alternate Take 2) (02:26)
04. I've Had My Fun (02:02)
05. Toddle (02:38)
06. Confessin' The Blues (03:04)
07. Key To The Highway (02:46)
08. Rock Bottom (02:31)
09. Rock Bottom (02:19)
10. Walkin' On (Rock Bottom Alternate) (02:36)
11. You Gonna Be Sorry (Someday Baby) (Take 5) (02:43)
12. You Gonna Be Sorry (Someday Baby) (Alternate Take) (03:08)
13. You Gonna Be Sorry (Someday Baby) (02:49)
14. One Of These Mornings (Instrumental) (03:13)
15. Baby (02:00)
16. My Baby Is Sweeter (Alternate Take) (02:51)
17. My Baby Is Sweeter (02:29)
18. Crazy Mixed Up World (Alternate Take) (02:01)
19. Crazy Mixed Up World (02:00)
20. Worried Life (Alternate Take) (02:18)
21. Worried Life (02:40)
22. Everthing's Gonna Be Alright (Take 1) (04:29)
23. Everything's Gonna Be Alright (Alternate 1) (02:15)
24. Everything's Gonna Be Alright (Alternate 2) (03:02)
25. Everything's Gonna Be Alright (02:50)
26. Mean Old Frisco (Alternate Take) (03:06)
27. Mean Old Frisco (02:25)


EAC log CD4
Exact Audio Copy V0.99 prebeta 4 from 23. January 2008

EAC extraction logfile from 22. April 2009, 22:32

Little Walter / Little Walter - The Complete Chess Masters 1950-1967 (Disc 4)

Used drive : BENQ DVD DC DW1670 Adapter: 1 ID: 0

Read mode : Secure
Utilize accurate stream : Yes
Defeat audio cache : Yes
Make use of C2 pointers : No

Read offset correction : 102
Overread into Lead-In and Lead-Out : No
Fill up missing offset samples with silence : Yes
Delete leading and trailing silent blocks : No
Null samples used in CRC calculations : Yes
Used interface : Installed external ASPI interface
Gap handling : Appended to previous track

Used output format : User Defined Encoder
Selected bitrate : 256 kBit/s
Quality : High
Add ID3 tag : No
Command line compressor : C:ProgramFLACflac.exe
Additional command line options : -8 -V -T "ARTIST=%a" -T "TITLE=%t" -T "ALBUM=%g" -T "DATE=%y" -T "TRACKNUMBER=%n" -T "GENRE=%m" -T "COMMENT=EAC FLAC -8" %s TOC of the extracted CD

Track | Start | Length | Start sector | End sector
---------------------------------------------------------
1 | 0:00.00 | 2:54.05 | 0 | 13054
2 | 2:54.05 | 2:13.51 | 13055 | 23080
3 | 5:07.56 | 2:26.43 | 23081 | 34073
4 | 7:34.24 | 2:02.36 | 34074 | 43259
5 | 9:36.60 | 2:38.05 | 43260 | 55114
6 | 12:14.65 | 3:04.08 | 55115 | 68922
7 | 15:18.73 | 2:46.12 | 68923 | 81384
8 | 18:05.10 | 2:31.23 | 81385 | 92732
9 | 20:36.33 | 2:18.72 | 92733 | 103154
10 | 22:55.30 | 2:36.57 | 103155 | 114911
11 | 25:32.12 | 2:43.27 | 114912 | 127163
12 | 28:15.39 | 3:08.19 | 127164 | 141282
13 | 31:23.58 | 2:49.19 | 141283 | 153976
14 | 34:13.02 | 3:13.14 | 153977 | 168465
15 | 37:26.16 | 2:00.27 | 168466 | 177492
16 | 39:26.43 | 2:51.36 | 177493 | 190353
17 | 42:18.04 | 2:29.23 | 190354 | 201551
18 | 44:47.27 | 2:01.33 | 201552 | 210659
19 | 46:48.60 | 2:00.68 | 210660 | 219727
20 | 48:49.53 | 2:18.04 | 219728 | 230081
21 | 51:07.57 | 2:40.54 | 230082 | 242135
22 | 53:48.36 | 4:29.07 | 242136 | 262317
23 | 58:17.43 | 2:15.34 | 262318 | 272476
24 | 60:33.02 | 3:02.12 | 272477 | 286138
25 | 63:35.14 | 2:50.38 | 286139 | 298926
26 | 66:25.52 | 3:06.07 | 298927 | 312883
27 | 69:31.59 | 2:25.49 | 312884 | 323807 Track 1

Filename C:Documents and SettingsellroySkrivbordLittle Walter - The Complete Chess Masters 1950-1967 (2009) [FLAC]CD41 - Ah'w Baby.wav

Pre-gap length 0:00:02.00

Peak level 98.8 %
Track quality 100.0 %
Test CRC F2D7D693
Copy CRC F2D7D693
Track not present in AccurateRip database
Copy OK

Track 2

Filename C:Documents and SettingsellroySkrivbordLittle Walter - The Complete Chess Masters 1950-1967 (2009) [FLAC]CD42 - I've Had My Fun (Alternate Take).wav

Pre-gap length 0:00:01.89

Peak level 97.7 %
Track quality 100.0 %
Test CRC 8FFE582E
Copy CRC 8FFE582E
Track not present in AccurateRip database
Copy OK

Track 3

Filename C:Documents and SettingsellroySkrivbordLittle Walter - The Complete Chess Masters 1950-1967 (2009) [FLAC]CD43 - I've Had My Fun (Alternate Take 2).wav

Pre-gap length 0:00:01.80

Peak level 98.8 %
Track quality 100.0 %
Test CRC 1E095588
Copy CRC 1E095588
Track not present in AccurateRip database
Copy OK

Track 4

Filename C:Documents and SettingsellroySkrivbordLittle Walter - The Complete Chess Masters 1950-1967 (2009) [FLAC]CD44 - I've Had My Fun.wav

Pre-gap length 0:00:01.81

Peak level 98.8 %
Track quality 100.0 %
Test CRC 6214F6D0
Copy CRC 6214F6D0
Track not present in AccurateRip database
Copy OK

Track 5

Filename C:Documents and SettingsellroySkrivbordLittle Walter - The Complete Chess Masters 1950-1967 (2009) [FLAC]CD45 - Toddle.wav

Pre-gap length 0:00:01.89

Peak level 91.9 %
Track quality 99.9 %
Test CRC 5FED8960
Copy CRC 5FED8960
Track not present in AccurateRip database
Copy OK

Track 6

Filename C:Documents and SettingsellroySkrivbordLittle Walter - The Complete Chess Masters 1950-1967 (2009) [FLAC]CD46 - Confessin' The Blues.wav

Pre-gap length 0:00:01.80

Peak level 98.8 %
Track quality 100.0 %
Test CRC D70E1224
Copy CRC D70E1224
Track not present in AccurateRip database
Copy OK

Track 7

Filename C:Documents and SettingsellroySkrivbordLittle Walter - The Complete Chess Masters 1950-1967 (2009) [FLAC]CD47 - Key To The Highway.wav

Pre-gap length 0:00:01.80

Peak level 98.8 %
Track quality 100.0 %
Test CRC C3A2E5E0
Copy CRC C3A2E5E0
Track not present in AccurateRip database
Copy OK

Track 8

Filename C:Documents and SettingsellroySkrivbordLittle Walter - The Complete Chess Masters 1950-1967 (2009) [FLAC]CD48 - Rock Bottom.wav

Pre-gap length 0:00:01.92

Peak level 94.3 %
Track quality 100.0 %
Test CRC DDAE0318
Copy CRC DDAE0318
Track not present in AccurateRip database
Copy OK

Track 9

Filename C:Documents and SettingsellroySkrivbordLittle Walter - The Complete Chess Masters 1950-1967 (2009) [FLAC]CD49 - Rock Bottom.wav

Pre-gap length 0:00:01.86

Peak level 83.1 %
Track quality 100.0 %
Test CRC A7E347E7
Copy CRC A7E347E7
Track not present in AccurateRip database
Copy OK

Track 10

Filename C:Documents and SettingsellroySkrivbordLittle Walter - The Complete Chess Masters 1950-1967 (2009) [FLAC]CD410 - Walkin' On (Rock Bottom Alternate).wav

Pre-gap length 0:00:01.97

Peak level 83.3 %
Track quality 100.0 %
Test CRC 2DFA550F
Copy CRC 2DFA550F
Track not present in AccurateRip database
Copy OK

Track 11

Filename C:Documents and SettingsellroySkrivbordLittle Walter - The Complete Chess Masters 1950-1967 (2009) [FLAC]CD411 - You Gonna Be Sorry (Someday Baby) (Take 5).wav

Pre-gap length 0:00:01.96

Peak level 99.9 %
Track quality 99.9 %
Test CRC F8A5F6A1
Copy CRC F8A5F6A1
Track not present in AccurateRip database
Copy OK

Track 12

Filename C:Documents and SettingsellroySkrivbordLittle Walter - The Complete Chess Masters 1950-1967 (2009) [FLAC]CD412 - You Gonna Be Sorry (Someday Baby) (Alternate Take).wav

Pre-gap length 0:00:01.81

Peak level 88.1 %
Track quality 100.0 %
Test CRC 0A48545C
Copy CRC 0A48545C
Track not present in AccurateRip database
Copy OK

Track 13

Filename C:Documents and SettingsellroySkrivbordLittle Walter - The Complete Chess Masters 1950-1967 (2009) [FLAC]CD413 - You Gonna Be Sorry (Someday Baby).wav

Pre-gap length 0:00:01.89

Peak level 88.9 %
Track quality 100.0 %
Test CRC D5921949
Copy CRC D5921949
Track not present in AccurateRip database
Copy OK

Track 14

Filename C:Documents and SettingsellroySkrivbordLittle Walter - The Complete Chess Masters 1950-1967 (2009) [FLAC]CD414 - One Of These Mornings (Instrumental).wav

Pre-gap length 0:00:01.96

Peak level 98.8 %
Track quality 100.0 %
Test CRC FA3AE1AB
Copy CRC FA3AE1AB
Track not present in AccurateRip database
Copy OK

Track 15

Filename C:Documents and SettingsellroySkrivbordLittle Walter - The Complete Chess Masters 1950-1967 (2009) [FLAC]CD415 - Baby.wav

Pre-gap length 0:00:02.05

Peak level 79.2 %
Track quality 100.0 %
Test CRC A02591FE
Copy CRC A02591FE
Track not present in AccurateRip database
Copy OK

Track 16

Filename C:Documents and SettingsellroySkrivbordLittle Walter - The Complete Chess Masters 1950-1967 (2009) [FLAC]CD416 - My Baby Is Sweeter (Alternate Take).wav

Pre-gap length 0:00:01.97

Peak level 81.7 %
Track quality 100.0 %
Test CRC 1266B044
Copy CRC 1266B044
Track not present in AccurateRip database
Copy OK

Track 17

Filename C:Documents and SettingsellroySkrivbordLittle Walter - The Complete Chess Masters 1950-1967 (2009) [FLAC]CD417 - My Baby Is Sweeter.wav

Pre-gap length 0:00:01.97

Peak level 89.7 %
Track quality 100.0 %
Test CRC A9E82526
Copy CRC A9E82526
Track not present in AccurateRip database
Copy OK

Track 18

Filename C:Documents and SettingsellroySkrivbordLittle Walter - The Complete Chess Masters 1950-1967 (2009) [FLAC]CD418 - Crazy Mixed Up World (Alternate Take).wav

Pre-gap length 0:00:01.97

Peak level 82.1 %
Track quality 100.0 %
Test CRC 640AD129
Copy CRC 640AD129
Track not present in AccurateRip database
Copy OK

Track 19

Filename C:Documents and SettingsellroySkrivbordLittle Walter - The Complete Chess Masters 1950-1967 (2009) [FLAC]CD419 - Crazy Mixed Up World.wav

Pre-gap length 0:00:01.96

Peak level 74.0 %
Track quality 100.0 %
Test CRC 9B8C722D
Copy CRC 9B8C722D
Track not present in AccurateRip database
Copy OK

Track 20

Filename C:Documents and SettingsellroySkrivbordLittle Walter - The Complete Chess Masters 1950-1967 (2009) [FLAC]CD420 - Worried Life (Alternate Take).wav

Pre-gap length 0:00:01.94

Peak level 88.4 %
Tr


Chess Master Vs Chess Amateur | Little Walter The Complete Chess Masters 1950 1967 | He Man And The Masters Of The Universe Complete | Castle 2009 Season 5 Complete | Castle 2009 Complete 1080P | D O A 1950 | Complete Elvis Presley Masters 2010 | The Complete Chess Course | Elvis Presley The Complete 50 S Masters | Life 2009 Complete
Little Walter - The Complete Chess Masters 1950-1967 (2009) 5 CD Box Set Torrent Download with keygen, crack, serial, dvdrip, hdrip, HD, 720p, 1024p, 2016, 2015