The Good Doctor | Oglądaj | Capital Talk

B.B. King - Do The Boogie! B.B. Kings Early 50s Classics (1988) Repost New Rip

New Download Links
Speed
 kbps
 kbps
 kbps

B.B. King - Do The Boogie! B.B. King's Early 50s Classics (1988)
EAC | FLAC | Image (Cue&Log) ~ 408 Mb (incl 5%) | Mp3 (CBR320) ~ 190 Mb (incl 5%) | Scans included
Genre: Early R&B, Electric Blues | Label: Virgin | # 7243 8 39654 2 7 | Time: 00:56:17

20 killer tracks from B.B. King's 1950s heyday, including quite a few alternate takes and a few tough-to-locate items ("Bye Bye Baby," "Dark Is the Night," "Jump with You Baby"). Many of the titles are familiar ones -- "Woke Up This Morning," "Every Day (I Have the Blues)," "Please Love Me," "Whole Lotta Love" -- but often as not, compiler Ray Topping unearthed contrasting versions from the same sessions that shed new, fascinating light on King's studio techniques.

Review by Bill Dahl, Allmusic.com




Tracklist:

01. Boogie Woogie Woman (02:48)
02. Past Day (03:16)
03. I Gotta Find My Baby (02:47)
04. Bye Bye Baby (02:30)
05. Woke Up This Morning (My Baby's Gone) (03:02)
06. Please Love Me (02:52)
07. Blind Love (03:07)
08. When My Heart Beats Like A Hammer (02:57)
09. Whole Lotta Love (03:09)
10. That Ain't The Way To Do It (02:21)
11. Everyday (I Have The Blues) (02:36)
12. Let's Do The Boogie (02:26)
13. Dark Is The Night - Part 1 (02:40)
14. Dark Is The Night - Part 2 (02:44)
15. Why I Sing The Blues (02:46)
16. Everything I Do Is Wrong (02:28)
17. The Woman I Love (02:53)
18. Jump With Your Baby (02:13)
19. Troubles, Troubles, Troubles (03:37)
20. Crying Won't Help You (02:56)


EAC log
Exact Audio Copy V1.0 beta 6 from 9. April 2015

Отчёт EAC об извлечении, выполненном 18. апреля 2015, 9:04

B.B. King / Do The Boogie! B.B. King's Early 50s Classics

Дисковод: SONY CD-RW CRX230ED Adapter: 1 ID: 0

Режим чтения : Достоверность
Использование точного потока : Да
Отключение кэша аудио : Да
Использование указателей C2 : Нет

Коррекция смещения при чтении : 6
Способность читать области Lead-in и Lead-out : Нет
Заполнение пропущенных сэмплов тишиной : Да
Удаление блоков с тишиной в начале и конце : Нет
При вычислениях CRC использовались нулевые сэмплы : Да
Интерфейс : Встроенный Win32-интерфейс для Win NT/2000

Выходной формат : Внутренние WAV-операции
Формат сэмплов : 44.100 Гц; 16 бит; стерео TOC извлечённого CD

Трек | Старт | Длительность | Начальный сектор | Конечный сектор
---------------------------------------------------------------------
1 | 0:00.00 | 2:48.10 | 0 | 12609
2 | 2:48.10 | 3:16.02 | 12610 | 27311
3 | 6:04.12 | 2:47.08 | 27312 | 39844
4 | 8:51.20 | 2:30.65 | 39845 | 51159
5 | 11:22.10 | 3:02.32 | 51160 | 64841
6 | 14:24.42 | 2:52.45 | 64842 | 77786
7 | 17:17.12 | 3:07.48 | 77787 | 91859
8 | 20:24.60 | 2:57.40 | 91860 | 105174
9 | 23:22.25 | 3:09.30 | 105175 | 119379
10 | 26:31.55 | 2:21.07 | 119380 | 129961
11 | 28:52.62 | 2:36.68 | 129962 | 141729
12 | 31:29.55 | 2:26.35 | 141730 | 152714
13 | 33:56.15 | 2:40.37 | 152715 | 164751
14 | 36:36.52 | 2:44.03 | 164752 | 177054
15 | 39:20.55 | 2:46.22 | 177055 | 189526
16 | 42:07.02 | 2:28.18 | 189527 | 200644
17 | 44:35.20 | 2:53.45 | 200645 | 213664
18 | 47:28.65 | 2:13.65 | 213665 | 223704
19 | 49:42.55 | 3:37.60 | 223705 | 240039
20 | 53:20.40 | 2:56.40 | 240040 | 253279 Характеристики диапазона извлечения и сообщения об ошибках

Выбранный диапазон

Имя файла F:MusicCDTorrentB.B. King - Do The Boogie! B.B. King's Early 50s ClassicsB.B. King - Do The Boogie! B.B. King's Early 50s Classics.wav

Пиковый уровень 94.6 %
Скорость извлечения 7.4 X
Качество диапазона 100.0 %
CRC теста F07277E6
CRC копии F07277E6
Копирование... OK

Ошибок не произошло


AccurateRip: сводка

Трек 1 : извлечено точно (доверие 2) [F27E092B] (AR v2)
Трек 2 : извлечено точно (доверие 2) [4B3A0052] (AR v2)
Трек 3 : извлечено точно (доверие 2) [B53713AA] (AR v2)
Трек 4 : извлечено точно (доверие 2) [625F261A] (AR v2)
Трек 5 : извлечено точно (доверие 2) [61A6DD12] (AR v2)
Трек 6 : извлечено точно (доверие 2) [C6EFC850] (AR v2)
Трек 7 : извлечено точно (доверие 2) [D3C983AE] (AR v2)
Трек 8 : извлечено точно (доверие 2) [0DC5D09D] (AR v2)
Трек 9 : извлечено точно (доверие 2) [B42C0B79] (AR v2)
Трек 10 : извлечено точно (доверие 2) [E2FD1EFE] (AR v2)
Трек 11 : извлечено точно (доверие 2) [D230BD9F] (AR v2)
Трек 12 : извлечено точно (доверие 2) [24BB2514] (AR v2)
Трек 13 : извлечено точно (доверие 5) [0DEC00A5] (AR v1)
Трек 14 : извлечено точно (доверие 5) [E8A61931] (AR v1)
Трек 15 : извлечено точно (доверие 5) [43B117BE] (AR v1)
Трек 16 : извлечено точно (доверие 5) [2686BB26] (AR v1)
Трек 17 : извлечено точно (доверие 5) [6E839A57] (AR v1)
Трек 18 : извлечено точно (доверие 5) [21930455] (AR v1)
Трек 19 : извлечено точно (доверие 2) [231146E0] (AR v2)
Трек 20 : извлечено точно (доверие 2) [01E660CB] (AR v2)

Все треки извлечены точно

Конец отчёта

---- CUETools DB Plugin V2.1.6

[CTDB TOCID: Btkl68YOWUBb6VVWVC3DvkZrj.o-] found
Submit result: Btkl68YOWUBb6VVWVC3DvkZrj.o- has been confirmed
Track | CTDB Status
1 | (5/5) Accurately ripped
2 | (5/5) Accurately ripped
3 | (5/5) Accurately ripped
4 | (5/5) Accurately ripped
5 | (5/5) Accurately ripped
6 | (5/5) Accurately ripped
7 | (5/5) Accurately ripped
8 | (5/5) Accurately ripped
9 | (5/5) Accurately ripped
10 | (5/5) Accurately ripped
11 | (5/5) Accurately ripped
12 | (5/5) Accurately ripped
13 | (5/5) Accurately ripped
14 | (5/5) Accurately ripped
15 | (4/5) Accurately ripped
16 | (5/5) Accurately ripped
17 | (5/5) Accurately ripped
18 | (5/5) Accurately ripped
19 | (5/5) Accurately ripped
20 | (4/5) Accurately ripped ==== Контрольная сумма отчёта 395F177459F0F931D31DCDE333123B851748B4DA2BDBB4890BF26F2F599064F4 ====

DR log
foobar2000 1.2 / Dynamic Range Meter 1.1.1
log date: 2015-04-18 12:44:42

--------------------------------------------------------------------------------
Analyzed: B.B. King / Do The Boogie! B.B. King's Early 50s Classics
--------------------------------------------------------------------------------

DR Peak RMS Duration Track
--------------------------------------------------------------------------------
DR13 -2.76 dB -18.26 dB 2:48 01-Boogie Woogie Woman
DR12 -4.55 dB -20.06 dB 3:16 02-Past Day
DR12 -3.11 dB -16.68 dB 2:47 03-I Gotta Find My Baby
DR12 -3.15 dB -17.11 dB 2:31 04-Bye Bye Baby
DR10 -3.69 dB -16.40 dB 3:02 05-Woke Up This Morning (My Baby's Gone)
DR10 -5.87 dB -17.87 dB 2:53 06-Please Love Me
DR11 -5.65 dB -18.70 dB 3:08 07-Blind Love
DR14 -2.00 dB -18.60 dB 2:58 08-When My Heart Beats Like A Hammer
DR11 -3.28 dB -16.76 dB 3:09 09-Whole Lotta Love
DR11 -5.75 dB -18.34 dB 2:21 10-That Ain't The Way To Do It
DR14 -0.85 dB -18.87 dB 2:37 11-Everyday (I Have The Blues)
DR12 -4.32 dB -17.58 dB 2:26 12-Let's Do The Boogie
DR11 -3.66 dB -16.70 dB 2:40 13-Dark Is The Night - Part 1
DR10 -3.44 dB -15.86 dB 2:44 14-Dark Is The Night - Part 2
DR12 -0.71 dB -16.31 dB 2:46 15-Why I Sing The Blues
DR12 -2.11 dB -17.44 dB 2:28 16-Everything I Do Is Wrong
DR13 -0.47 dB -16.53 dB 2:54 17-The Woman I Love
DR11 -1.41 dB -16.10 dB 2:14 18-Jump With Your Baby
DR12 -1.57 dB -17.75 dB 3:38 19-Troubles, Troubles, Troubles
DR12 -1.36 dB -16.60 dB 2:57 20-Crying Won't Help You
--------------------------------------------------------------------------------

Number of tracks: 20
Official DR value: DR12

Samplerate: 44100 Hz
Channels: 2
Bits per sample: 16
Bitrate: 835 kbps
Codec: FLAC
================================================================================







Vedio Viva La Muerte 1971 Repost Sex | Vedio Viva La Muerte 1971 Repost | Viva La Muerte 1971 Repost | The King Of The Kings Ita | The King Of Kings County | The Greenback Boogie | Yes Sir I Can Boogie | Get Up And Boogie | King Of Kings Motorhead | The King Of The Kings
B.B. King - Do The Boogie! B.B. Kings Early 50s Classics (1988) Repost New Rip Torrent Download with keygen, crack, serial, dvdrip, hdrip, HD, 720p, 1024p, 2016, 2015