Lost in Florence (2017) | The Santa Clause 3: The Escape Clause (2006) | Beyond Skyline (2017)

Ray Conniff´s Concert In Stereo - Live at the Sahara / Tahoe ( CD 2002 ) Re Up

New Download Links
Speed
 kbps
 kbps
 kbps

Ray Conniff´s Concert In Stereo
Live at the Sahara / Tahoe ( CD 2002 )

EAC Rip | FLAC-TRACKS+CUE+LOG | 1CD | Scans | 69 Min. | 447 MB
Label: Sony Music Collectables / Catalogue: COL-CD-7433 /
Easy Listening Pop / LP Released in 1970

This album was recorded in 1969 at the Sahara Tahoe hotel in Lake Tahoe, Nevada. It was released when Conniff was at the peak of his popularity and is probably the best selling of his live tour albums.
The repertoire varies from Conniff's old instrumental hits such as Smoke Gets In Your Eyes and On The Street Where You Live to contemporary songs of that period including Love Me Tonight, Honey, and Mrs. Robinson, performed by the Conniff Singers.



Unfortunately, the CD reissue does not include the original credits and liner notes. The listener may not be aware of some of the big name musicians Conniff had in his orchestra, such as Johnny Guarnieri on piano (from Artie Shaw/Benny Goodman bands), Panama Francis on drums (Cab Calloway), Skeets Herfurt on clarinet (Dorsey Brothers Orchestra), and Johnny Best on trumpet (Glenn Miller Orchestra). Conniff himself was an arranger and trombonist for Bunny Berigan, Bob Crosby, and Artie Shaw among others.
Conniff was never afraid to share the limelight with the musicians and singers. Several solos are performed on this set but perhaps the best is when Ray gathers the above mentioned musicians to perform authentic Dixieland favorites: Muskrat Ramble and South Rampart Street Parade.
The CD packaging is missing most of the photos from the original Lp set. However, it does include a well written article by Ray's daughter Tamara which discusses Ray's entire career from first learning how to play the trombone through the present day.Every Ray Conniff fan should own a copy of this CD. If you have a few dollars to spare .

Recorded live at The Sahara Tahoe , september 3 1969 .

Track Listings
1. Love Me Tonight
2. (When Your Heart's On Fire) Smoke Gets In Your Eyes
3. Brazil
4. Honey (I Miss You)
5. Those Were The Days
6. Somewhere My Love
7. Mrs. Robinson
8. Besame Mucho
9. On The Street Where You Live
10. Memories Are Made Of This
11. Oklahoma!
12. An Improvisation On Schubert's 'Serenade'
13. An Improvisation On Chopin's 'Nocturne In E Flat'
14. Tea For Two
15. He's Got The Whole World In His Hands
16. It's So Nice To Have A Man Around The House
17. The Good, The Bad And The Ugly
18. Mack The Knife (Moritat)
19. Muskrat Ramble
20. South Rampart Street Parade
21. Mame
22. Mame (Reprise)

Log File

EAC LOG
Exact Audio Copy V1.0 beta 3 from 29. August 2011

EAC extraction logfile from 27. May 2015, 9:29

Ray Conniff / Concert in Stereo - Live At The Sahara / Tahoe

Used drive : SONY DVD RW DRU-840A Adapter: 0 ID: 1

Read mode : Secure
Utilize accurate stream : Yes
Defeat audio cache : Yes
Make use of C2 pointers : No

Read offset correction : 6
Overread into Lead-In and Lead-Out : No
Fill up missing offset samples with silence : Yes
Delete leading and trailing silent blocks : No
Null samples used in CRC calculations : Yes
Used interface : Native Win32 interface for Win NT & 2000
Gap handling : Not detected, thus appended to previous track

Used output format : User Defined Encoder
Selected bitrate : 320 kBit/s
Quality : High
Add ID3 tag : No
Command line compressor : C:Archivos de programaExact Audio CopyFLACFLAC.EXE
Additional command line options : -6 -V -T "ARTIST=%artist%" -T "TITLE=%title%" -T "ALBUM=%albumtitle%" -T "DATE=%year%" -T "TRACKNUMBER=%tracknr%" -T "GENRE=%genre%" -T "COMMENT=%comment%" -T "BAND=%albuminterpret%" -T "ALBUMARTIST=%albuminterpret%" -T "COMPOSER=%composer%" %haslyrics%--tag-from-file=LYRICS="%lyricsfile%"%haslyrics% -T "DISCNUMBER=%cdnumber%" -T "TOTALDISCS=%totalcds%" -T "TOTALTRACKS=%numtracks%" %hascover%--picture="%coverfile%"%hascover% %source% -o %dest% TOC of the extracted CD

Track | Start | Length | Start sector | End sector
---------------------------------------------------------
1 | 0:00.00 | 2:53.52 | 0 | 13026
2 | 2:53.52 | 2:28.73 | 13027 | 24199
3 | 5:22.50 | 2:48.05 | 24200 | 36804
4 | 8:10.55 | 2:17.15 | 36805 | 47094
5 | 10:27.70 | 3:04.45 | 47095 | 60939
6 | 13:32.40 | 3:07.52 | 60940 | 75016
7 | 16:40.17 | 2:28.30 | 75017 | 86146
8 | 19:08.47 | 3:05.55 | 86147 | 100076
9 | 22:14.27 | 1:53.73 | 100077 | 108624
10 | 24:08.25 | 6:43.47 | 108625 | 138896
11 | 30:51.72 | 2:39.63 | 138897 | 150884
12 | 33:31.60 | 2:16.65 | 150885 | 161149
13 | 35:48.50 | 3:33.17 | 161150 | 177141
14 | 39:21.67 | 2:51.10 | 177142 | 189976
15 | 42:13.02 | 3:16.70 | 189977 | 204746
16 | 45:29.72 | 5:01.03 | 204747 | 227324
17 | 50:31.00 | 2:47.60 | 227325 | 239909
18 | 53:18.60 | 2:44.45 | 239910 | 252254
19 | 56:03.30 | 5:42.40 | 252255 | 277944
20 | 61:45.70 | 2:59.57 | 277945 | 291426
21 | 64:45.52 | 3:07.15 | 291427 | 305466
22 | 67:52.67 | 1:51.38 | 305467 | 313829 Track 1

Filename E:MUSICMy MusicRe subirRay ConniffRay Conniff´s Concert In Stereo - Live At The Sahara - TahoeCD1 Love Me Tonight (Panzeri-Pilat-Mason).wav

Peak level 89.0 %
Extraction speed 1.8 X
Track quality 100.0 %
Test CRC EA7D3518
Copy CRC EA7D3518
Cannot be verified as accurate (confidence 2) [22A8D2BB], AccurateRip returned [7EED58AA] (AR v2)
Copy OK

Track 2

Filename E:MUSICMy MusicRe subirRay ConniffRay Conniff´s Concert In Stereo - Live At The Sahara - TahoeCD2 (When Your Heart's On Fire) Smoke Gets in Your Eyes (Kern-Harbach).wav

Peak level 87.1 %
Extraction speed 1.9 X
Track quality 100.0 %
Test CRC 3AE8E2FD
Copy CRC 3AE8E2FD
Cannot be verified as accurate (confidence 2) [EDC329F7], AccurateRip returned [B6C026ED] (AR v2)
Copy OK

Track 3

Filename E:MUSICMy MusicRe subirRay ConniffRay Conniff´s Concert In Stereo - Live At The Sahara - TahoeCD3 Brazil (Barroso-Russell).wav

Peak level 89.4 %
Extraction speed 2.0 X
Track quality 100.0 %
Test CRC 128E6B71
Copy CRC 128E6B71
Cannot be verified as accurate (confidence 2) [A9945FAD], AccurateRip returned [BA474BFC] (AR v2)
Copy OK

Track 4

Filename E:MUSICMy MusicRe subirRay ConniffRay Conniff´s Concert In Stereo - Live At The Sahara - TahoeCD4 Honey (I Miss You) (Russell).wav

Peak level 85.3 %
Extraction speed 2.0 X
Track quality 100.0 %
Test CRC 174E4D7C
Copy CRC 174E4D7C
Cannot be verified as accurate (confidence 2) [DF863CE9], AccurateRip returned [B82F88F5] (AR v2)
Copy OK

Track 5

Filename E:MUSICMy MusicRe subirRay ConniffRay Conniff´s Concert In Stereo - Live At The Sahara - TahoeCD5 Those Were The Days (Raskin).wav

Peak level 85.4 %
Extraction speed 1.8 X
Track quality 99.9 %
Test CRC 6F18BC03
Copy CRC 6F18BC03
Cannot be verified as accurate (confidence 2) [9BE900F2], AccurateRip returned [EA800271] (AR v2)
Copy OK

Track 6

Filename E:MUSICMy MusicRe subirRay ConniffRay Conniff´s Concert In Stereo - Live At The Sahara - TahoeCD6 Somewhere My Love (Webster-Jarre).wav

Peak level 86.0 %
Extraction speed 2.4 X
Track quality 100.0 %
Test CRC E0613463
Copy CRC E0613463
Cannot be verified as accurate (confidence 2) [F0A5567B], AccurateRip returned [2F8A2663] (AR v2)
Copy OK

Track 7

Filename E:MUSICMy MusicRe subirRay ConniffRay Conniff´s Concert In Stereo - Live At The Sahara - TahoeCD7 Mrs. Robinson (Paul Simon).wav

Peak level 84.4 %
Extraction speed 1.8 X
Track quality 99.9 %
Test CRC 62D69F96
Copy CRC 62D69F96
Cannot be verified as accurate (confidence 2) [F0C28F2E], AccurateRip returned [4BD8FCC4] (AR v2)
Copy OK

Track 8

Filename E:MUSICMy MusicRe subirRay ConniffRay Conniff´s Concert In Stereo - Live At The Sahara - TahoeCD8 Besame Mucho (Velasquez-Skylar).wav

Peak level 82.4 %
Extraction speed 2.6 X
Track quality 100.0 %
Test CRC E78A3587
Copy CRC E78A3587
Cannot be verified as accurate (confidence 2) [D0630C75], AccurateRip returned [BA432027] (AR v2)
Copy OK

Track 9

Filename E:MUSICMy MusicRe subirRay ConniffRay Conniff´s Concert In Stereo - Live At The Sahara - TahoeCD9 On The Street Where You Live (Loewe-Lerner).wav

Peak level 82.5 %
Extraction speed 2.3 X
Track quality 100.0 %
Test CRC 8B54A8D8
Copy CRC 8B54A8D8
Cannot be verified as accurate (confidence 2) [DA9ABA40], AccurateRip returned [3F3279C3] (AR v2)
Copy OK

Track 10

Filename E:MUSICMy MusicRe subirRay ConniffRay Conniff´s Concert In Stereo - Live At The Sahara - TahoeCD10 Memories Are Made Of This (Gilkyson-Dehr-Miller).wav

Peak level 85.6 %
Extraction speed 3.0 X
Track quality 100.0 %
Test CRC 6F1EC221
Copy CRC 6F1EC221
Cannot be verified as accurate (confidence 2) [1EA5897B], AccurateRip returned [7014EA15] (AR v2)
Copy OK

Track 11

Filename E:MUSICMy MusicRe subirRay ConniffRay Conniff´s Concert In Stereo - Live At The Sahara - TahoeCD11 Oklahoma (Hammerstein II-Rodgers).wav

Peak level 91.1 %
Extraction speed 2.8 X
Track quality 100.0 %
Test CRC C4134417
Copy CRC C4134417
Cannot be verified as accurate (confidence 2) [C5EE2ECD], AccurateRip returned [6AF51C89] (AR v2)
Copy OK

Track 12

Filename E:MUSICMy MusicRe subirRay ConniffRay Conniff´s Concert In Stereo - Live At The Sahara - TahoeCD12 An Improvisation On Schubert's 'Serenade' (Schubert).wav

Peak level 86.9 %
Extraction speed 2.8 X
Track quality 100.0 %
Test CRC 47F1BE99
Copy CRC 47F1BE99
Cannot be verified as accurate (confidence 2) [D843130D], AccurateRip returned [204C81FF] (AR v2)
Copy OK

Track 13

Filename E:MUSICMy MusicRe subirRay ConniffRay Conniff´s Concert In Stereo - Live At The Sahara - TahoeCD13 An Improvisation On Chopin's 'Nocturne In E Flat' (Chopin).wav

Peak level 92.1 %
Extraction speed 3.1 X
Track quality 100.0 %
Test CRC 0AF95D8C
Copy CRC 0AF95D8C
Cannot be verified as accurate (confidence 2) [934EDA52], AccurateRip returned [A737979B] (AR v2)
Copy OK

Track 14

Filename E:MUSICMy MusicRe subirRay ConniffRay Conniff´s Concert In Stereo - Live At The Sahara - TahoeCD14 Tea For Two (Caesar-Youmans).wav

Peak level 90.9 %
Extraction speed 3.1 X
Track quality 100.0 %
Test CRC DF963A5C
Copy CRC DF963A5C
Cannot be verified as accurate (confidence 2) [D85B3889], AccurateRip returned [168CF55A] (AR v2)
Copy OK

Track 15

Filename E:MUSICMy MusicRe subirRay ConniffRay Conniff´s Concert In Stereo - Live At The Sahara - TahoeCD15 He's Got The Whole World In His Hands (Mariuon-Hamilton).wav

Peak level 92.3 %
Extraction speed 3.2 X
Track quality 100.0 %
Test CRC 041F598D
Copy CRC 041F598D
Cannot be verified as accurate (confidence 2) [48CDA4FC], AccurateRip returned [5F150693] (AR v2)
Copy OK

Track 16

Filename E:MUSICMy MusicRe subirRay ConniffRay Conniff´s Concert In Stereo - Live At The Sahara - TahoeCD16 It's So Nice To Have A Man Around The House (Elliott-Spina).wav

Peak level 92.3 %
Extraction speed 3.5 X
Track quality 100.0 %
Test CRC 54E64EE1
Copy CRC 54E64EE1
Cannot be verified as accurate (confidence 2) [1F6968B4], AccurateRip returned [625810CC] (AR v2)
Copy OK

Track 17

Filename E:MUSICMy MusicRe subirRay ConniffRay Conniff´s Concert In Stereo - Live At The Sahara - TahoeCD17 The Good, The Bad, And The Ugly (E.Morricone).wav

Peak level 84.5 %
Extraction speed 3.3 X
Track quality 100.0 %
Test CRC CD7CB7EE
Copy CRC CD7CB7EE
Cannot be verified as accurate (confidence 2) [3A48EBBE], AccurateRip returned [DD0C3250] (AR v2)
Copy OK

Track 18

Filename E:MUSICMy MusicRe subirRay ConniffRay Conniff´s Concert In Stereo - Live At The Sahara - TahoeCD18 Mack The Knife (Brecht-Weil-Blitzstein).wav

Peak level 87.4 %
Extraction speed 3.3 X
Track quality 100.0 %
Test CRC 79A258EF
Copy CRC 79A258EF
Cannot be verified as accurate (confidence 2) [0BFFB4A2], AccurateRip returned [25503A36] (AR v2)
Copy OK

Track 19

Filename E:MUSICMy MusicRe subirRay ConniffRay Conniff´s Concert In Stereo - Live At The Sahara - TahoeCD19 Muskrat Ramble (Ory-Gilbert).wav

Peak level 85.6 %
Extraction speed 3.8 X
Track quality 100.0 %
Test CRC 0A4AE32E
Copy CRC 0A4AE32E
Cannot be verified as accurate (confidence 2) [C3C8E2B5], AccurateRip returned [5B3029FD] (AR v2)
Copy OK

Track 20

Filename E:MUSICMy MusicRe subirRay ConniffRay Conniff´s Concert In Stereo - Live At The Sahara - TahoeCD20 South Rampart Street Parade (Allen-Haggart-Bauduc).wav

Peak level 88.0 %
Extraction speed 3.6 X
Track quality 100.0 %
Test CRC 07EFD64C
Copy CRC 07EFD64C
Cannot be verified as accurate (confidence 2) [2C908D11], AccurateRip returned [DB58AE10] (AR v2)
Copy OK

Track 21

Filename E:MUSICMy MusicRe subirRay ConniffRay Conniff´s Concert In Stereo - Live At The Sahara - TahoeCD21 Mame (J.Herman).wav

Peak level 88.2 %
Extraction speed 2.5 X
Track quality 99.9 %
Test CRC 8C236135
Copy CRC 8C236135
Cannot be verified as accurate (confidence 2) [F7B4E313], AccurateRip returned [36065CB3] (AR v2)
Copy OK

Track 22

Filename E:MUSICMy MusicRe subirRay ConniffRay Conniff´s Concert In Stereo - Live At The Sahara - TahoeCD22 Mame (Reprise).wav

Peak level 86.3 %
Extraction speed 3.3 X
Track quality 100.0 %
Test CRC 039BB7C5
Copy CRC 039BB7C5
Cannot be verified as accurate (confidence 2) [62B3E602], AccurateRip returned [C803EE0F] (AR v2)
Copy OK No tracks could be verified as accurate
You may have a different pressing from the one(s) in the database

No errors occurred

End of status report

==== Log checksum 786C219265FDC0C6064EEC1A110A07EC171F8ED3D2EC0FB327AF5E3A1E68033A ====

------------------------------------------------------------

Exact Audio Copy V1.0 beta 3 from 29. August 2011

EAC extraction logfile from 27. May 2015, 9:29

Ray Conniff / Concert in Stereo - Live At The Sahara / Tahoe

Used drive : SONY DVD RW DRU-840A Adapter: 0 ID: 1

Read mode : Secure
Utilize accurate stream : Yes
Defeat audio cache : Yes
Make use of C2 pointers : No

Read offset correction : 6
Overread into Lead-In and Lead-Out : No
Fill up missing offset samples with silence : Yes
Delete leading and trailing silent blocks : No
Null samples used in CRC calculations : Yes
Used interface : Native Win32 interface for Win NT & 2000
Gap handling : Not detected, thus appended to previous track

Used output format : User Defined Encoder
Selected bitrate : 320 kBit/s
Quality : High
Add ID3 tag : No
Command line compressor : C:Archivos de programaExact Audio CopyFLACFLAC.EXE
Additional command line options : -6 -V -T "ARTIST=%artist%" -T "TITLE=%title%" -T "ALBUM=%albumtitle%" -T "DATE=%year%" -T "TRACKNUMBER=%tracknr%" -T "GENRE=%genre%" -T "COMMENT=%comment%" -T "BAND=%albuminterpret%" -T "ALBUMARTIST=%albuminterpret%" -T "COMPOSER=%composer%" %haslyrics%--tag-from-file=LYRICS="%lyricsfile%"%haslyrics% -T "DISCNUMBER=%cdnumber%" -T "TOTALDISCS=%totalcds%" -T "TOTALTRACKS=%numtracks%" %hascover%--picture="%coverfile%"%hascover% %source% -o %dest% TOC of the extracted CD

Track | Start | Length | Start sector | End sector
---------------------------------------------------------
1 | 0:00.00 | 2:53.52 | 0 | 13026
2 | 2:53.52 | 2:28.73 | 13027 | 24199
3 | 5:22.50 | 2:48.05 | 24200 | 36804
4 | 8:10.55 | 2:17.15 | 36805 | 47094
5 | 10:27.70 | 3:04.45 | 47095 | 60939
6 | 13:32.40 | 3:07.52 | 60940 | 75016
7 | 16:40.17 | 2:28.30 | 75017 | 86146
8 | 19:08.47 | 3:05.55 | 86147 | 100076
9 | 22:14.27 | 1:53.73 | 100077 | 108624
10 | 24:08.25 | 6:43.47 | 108625 | 138896
11 | 30:51.72 | 2:39.63 | 138897 | 150884
12 | 33:31.60 | 2:16.65 | 150885 | 161149
13 | 35:48.50 | 3:33.17 | 161150 | 177141
14 | 39:21.67 | 2:51.10 | 177142 | 189976
15 | 42:13.02 | 3:16.70 | 189977 | 204746
16 | 45:29.72 | 5:01.03 | 204747 | 227324
17 | 50:31.00 | 2:47.60 | 227325 | 239909
18 | 53:18.60 | 2:44.45 | 239910 | 252254
19 | 56:03.30 | 5:42.40 | 252255 | 277944
20 | 61:45.70 | 2:59.57 | 277945 | 291426
21 | 64:45.52 | 3:07.15 | 291427 | 305466
22 | 67:52.67 | 1:51.38 | 305467 | 313829 Track 1

Filename E:MUSICMy MusicRe subirRay ConniffRay Conniff´s Concert In Stereo - Live At The Sahara - TahoeCD1 Love Me Tonight (Panzeri-Pilat-Mason).wav

Peak level 89.0 %
Extraction speed 1.8 X
Track quality 100.0 %
Test CRC EA7D3518
Copy CRC EA7D3518
Cannot be verified as accurate (confidence 2) [22A8D2BB], AccurateRip returned [7EED58AA] (AR v2)
Copy OK

Track 2

Filename E:MUSICMy MusicRe subirRay ConniffRay Conniff´s Concert In Stereo - Live At The Sahara - TahoeCD2 (When Your Heart's On Fire) Smoke Gets in Your Eyes (Kern-Harbach).wav

Peak level 87.1 %
Extraction speed 1.9 X
Track quality 100.0 %
Test CRC 3AE8E2FD
Copy CRC 3AE8E2FD
Cannot be verified as accurate (confidence 2) [EDC329F7], AccurateRip returned [B6C026ED] (AR v2)
Copy OK

Track 3

Filename E:MUSICMy MusicRe subirRay ConniffRay Conniff´s Concert In Stereo - Live At The Sahara - TahoeCD3 Brazil (Barroso-Russell).wav

Peak level 89.4 %
Extraction speed 2.0 X
Track quality 100.0 %
Test CRC 128E6B71
Copy CRC 128E6B71
Cannot be verified as accurate (confidence 2) [A9945FAD], AccurateRip returned [BA474BFC] (AR v2)
Copy OK

Track 4

Filename E:MUSICMy MusicRe subirRay ConniffRay Conniff´s Concert In Stereo - Live At The Sahara - TahoeCD4 Honey (I Miss You) (Russell).wav

Peak level 85.3 %
Extraction speed 2.0 X
Track quality 100.0 %
Test CRC 174E4D7C
Copy CRC 174E4D7C
Cannot be verified as accurate (confidence 2) [DF863CE9], AccurateRip returned [B82F88F5] (AR v2)
Copy OK

Track 5

Filename E:MUSICMy MusicRe subirRay ConniffRay Conniff´s Concert In Stereo - Live At The Sahara - TahoeCD5 Those Were The Days (Raskin).wav

Peak level 85.4 %
Extraction speed 1.8 X
Track quality 99.9 %
Test CRC 6F18BC03
Copy CRC 6F18BC03
Cannot be verified as accurate (confidence 2) [9BE900F2], AccurateRip returned [EA800271] (AR v2)
Copy OK

Track 6

Filename E:MUSICMy MusicRe subirRay ConniffRay Conniff´s Concert In Stereo - Live At The Sahara - TahoeCD6 Somewhere My Love (Webster-Jarre).wav

Peak level 86.0 %
Extraction speed 2.4 X
Track quality 100.0 %
Test CRC E0613463
Copy CRC E0613463
Cannot be verified as accurate (confidence 2) [F0A5567B], AccurateRip returned [2F8A2663] (AR v2)
Copy OK

Track 7

Filename E:MUSICMy MusicRe subirRay ConniffRay Conniff´s Concert In Stereo - Live At The Sahara - TahoeCD7 Mrs. Robinson (Paul Simon).wav

Peak level 84.4 %
Extraction speed 1.8 X
Track quality 99.9 %
Test CRC 62D69F96
Copy CRC 62D69F96
Cannot be verified as accurate (confidence 2) [F0C28F2E], AccurateRip returned [4BD8FCC4] (AR v2)
Copy OK

Track 8

Filename E:MUSICMy MusicRe subirRay ConniffRay Conniff´s Concert In Stereo - Live At The Sahara - TahoeCD8 Besame Mucho (Velasquez-Skylar).wav

Peak level 82.4 %
Extraction speed 2.6 X
Track quality 100.0 %
Test CRC E78A3587
Copy CRC E78A3587
Cannot be verified as accurate (confidence 2) [D0630C75], AccurateRip returned [BA432027] (AR v2)
Copy OK

Track 9

Filename E:MUSICMy MusicRe subirRay ConniffRay Conniff´s Concert In Stereo - Live At The Sahara - TahoeCD9 On The Street Where You Live (Loewe-Lerner).wav

Peak level 82.5 %
Extraction speed 2.3 X
Track quality 100.0 %
Test CRC 8B54A8D8
Copy CRC 8B54A8D8
Cannot be verified as accurate (confidence 2) [DA9ABA40], AccurateRip returned [3F3279C3] (AR v2)
Copy OK

Track 10

Filename E:MUSICMy MusicRe subirRay ConniffRay Conniff´s Concert In Stereo - Live At The Sahara - TahoeCD10 Memories Are Made Of This (Gilkyson-Dehr-Miller).wav

Peak level 85.6 %
Extraction speed 3.0 X
Track quality 100.0 %
Test CRC 6F1EC221
Copy CRC 6F1EC221
Cannot be verified as accurate (confidence 2) [1EA5897B], AccurateRip returned [7014EA15] (AR v2)
Copy OK

Track 11

Filename E:MUSICMy MusicRe subirRay ConniffRay Conniff´s Concert In Stereo - Live At The Sahara - TahoeCD11 Oklahoma (Hammerstein II-Rodgers).wav

Peak level 91.1 %
Extraction speed 2.8 X
Track quality 100.0 %
Test CRC C4134417
Copy CRC C4134417
Cannot be verified as accurate (confidence 2) [C5EE2ECD], AccurateRip returned [6AF51C89] (AR v2)
Copy OK

Track 12

Filename E:MUSICMy MusicRe subirRay ConniffRay Conniff´s Concert In Stereo - Live At The Sahara - TahoeCD12 An Improvisation On Schubert's 'Serenade' (Schubert).wav

Peak level 86.9 %
Extraction speed 2.8 X
Track quality 100.0 %
Test CRC 47F1BE99
Copy CRC 47F1BE99
Cannot be verified as accurate (confidence 2) [D843130D], AccurateRip returned [204C81FF] (AR v2)
Copy OK

Track 13

Filename E:MUSICMy MusicRe subirRay ConniffRay Conniff´s Concert In Stereo - Live At The Sahara - TahoeCD13 An Improvisation On Chopin's 'Nocturne In E Flat' (Chopin).wav

Peak level 92.1 %
Extraction speed 3.1 X
Track quality 100.0 %
Test CRC 0AF95D8C
Copy CRC 0AF95D8C
Cannot be verified as accurate (confidence 2) [934EDA52], AccurateRip returned [A737979B] (AR v2)
Copy OK

Track 14

Filename E:MUSICMy MusicRe subirRay ConniffRay Conniff´s Concert In Stereo - Live At The Sahara - TahoeCD14 Tea For Two (Caesar-Youmans).wav

Peak level 90.9 %
Extraction speed 3.1 X
Track quality 100.0 %
Test CRC DF963A5C
Copy CRC DF963A5C
Cannot be verified as accurate (confidence 2) [D85B3889], AccurateRip returned [168CF55A] (AR v2)
Copy OK

Track 15

Filename E:MUSICMy MusicRe subirRay ConniffRay Conniff´s Concert In Stereo - Live At The Sahara - TahoeCD15 He's Got The Whole World In His Hands (Mariuon-Hamilton).wav

Peak level 92.3 %
Extraction speed 3.2 X
Track quality 100.0 %
Test CRC 041F598D
Copy CRC 041F598D
Cannot be verified as accurate (confidence 2) [48CDA4FC], AccurateRip returned [5F150693] (AR v2)
Copy OK

Track 16

Filename E:MUSICMy MusicRe subirRay ConniffRay Conniff´s Concert In Stereo - Live At The Sahara - TahoeCD16 It's So Nice To Have A Man Around The House (Elliott-Spina).wav

Peak level 92.3 %
Extraction speed 3.5 X
Track quality 100.0 %
Test CRC 54E64EE1
Copy CRC 54E64EE1
Cannot be verified as accurate (confidence 2) [1F6968B4], AccurateRip returned [625810CC] (AR v2)
Copy OK

Track 17

Filename E:MUSICMy MusicRe subirRay ConniffRay Conniff´s Concert In Stereo - Live At The Sahara - TahoeCD17 The Good, The Bad, And The Ugly (E.Morricone).wav

Peak level 84.5 %
Extraction speed 3.3 X
Track quality 100.0 %
Test CRC CD7CB7EE
Copy CRC CD7CB7EE
Cannot be verified as accurate (confidence 2) [3A48EBBE], AccurateRip returned [DD0C3250] (AR v2)
Copy OK

Track 18

Filename E:MUSICMy MusicRe subirRay ConniffRay Conniff´s Concert In Stereo - Live At The Sahara - TahoeCD18 Mack The Knife (Brecht-Weil-Blitzstein).wav

Peak level 87.4 %
Extraction speed 3.3 X
Track quality 100.0 %
Test CRC 79A258EF
Copy CRC 79A258EF
Cannot be verified as accurate (confidence 2) [0BFFB4A2], AccurateRip returned [25503A36] (AR v2)
Copy OK

Track 19

Filename E:MUSICMy MusicRe subirRay ConniffRay Conniff´s Concert In Stereo - Live At The Sahara - TahoeCD19 Muskrat Ramble (Ory-Gilbert).wav

Peak level 85.6 %
Extraction speed 3.8 X
Track quality 100.0 %
Test CRC 0A4AE32E
Copy CRC 0A4AE32E
Cannot be verified as accurate (confidence 2) [C3C8E2B5], AccurateRip returned [5B3029FD] (AR v2)
Copy OK

Track 20

Filename E:MUSICMy MusicRe subirRay ConniffRay Conniff´s Concert In Stereo - Live At The Sahara - TahoeCD20 South Rampart Street Parade (Allen-Haggart-Bauduc).wav

Peak level 88.0 %
Extraction speed 3.6 X
Track quality 100.0 %
Test CRC 07EFD64C
Copy CRC 07EFD64C
Cannot be verified as accurate (confidence 2) [2C908D11], AccurateRip returned [DB58AE10] (AR v2)
Copy OK

Track 21

Filename E:MUSICMy MusicRe subirRay ConniffRay Conniff´s Concert In Stereo - Live At The Sahara - TahoeCD21 Mame (J.Herman).wav

Peak level 88.2 %
Extraction speed 2.5 X
Track quality 99.9 %
Test CRC 8C236135
Copy CRC 8C236135
Cannot be verified as accurate (confidence 2) [F7B4E313], AccurateRip returned [36065CB3] (AR v2)
Copy OK

Track 22

Filename E:MUSICMy MusicRe subirRay ConniffRay Conniff´s Concert In Stereo - Live At The Sahara - TahoeCD22 Mame (Reprise).wav

Peak level 86.3 %
Extraction speed 3.3 X
Track quality 100.0 %
Test CRC 039BB7C5
Copy CRC 039BB7C5
Cannot be verified as accurate (confidence 2) [62B3E602], AccurateRip returned [C803EE0F] (AR v2)
Copy OK No tracks could be verified as accurate
You may have a different pressing from the one(s) in the database

No errors occurred

End of status report

==== Log checksum 786C219265FDC0C6064EEC1A110A07EC171F8ED3D2EC0FB327AF5E3A1E68033A ====




Eagle Live Concert | Live Concert Brrip | Concert Hd Live | Live Concert | Kara Live Concert | Rock Live Concert | Live 8 Concert | Live Concert Dvd | Jay Z Live Concert | Ray Conniff And The Singers
Ray Conniff´s Concert In Stereo - Live at the Sahara / Tahoe ( CD 2002 ) Re Up Torrent Download with keygen, crack, serial, dvdrip, hdrip, HD, 720p, 1024p, 2016, 2015