Slender Man Trailer DF | Economics - 425 Words | Юрий Башмет

Gounod - Faust ( Alain Lombard ) CD 1991 Re-Up

New Download Links
Speed
 kbps
 kbps
 kbps

Gounod - Faust ( Caball茅 - Aragall - Plishka ) [ CD 1991 ]
EAC Rip | FLAC-TRACKS+CUE+LOG | 3 CD | Scans+Libretto | 193 Min. | 788 MB
Label: Erato / Catalogue: 2292-45685-2 /
Opera / LP麓s Released in 1977

I can麓t believe this recording isn麓t in the catalogue anymore ,Montserrat Caball茅 , Giacomo Aragall and Paul Plishka , et al are fantastic . Anyone who owns this recording surely understands my enthusiasm about it .

Lombard refuses to think of Faust as a "war-horse". His interpretation is fresh, serious, and sensitive. His attention to detail is without peer. He has obviously lived with the score for some time and understands it. Rather than conducting down to it, he allows it to rise as z phoenix in the bright light of day.He also is willing to be a bit unconventional. As an example, he takes the final trio at a dangerously slow tempo. This puts tremendous pressure on the soprano, who must maintain a legato line or the whole piece will collapse. There are few singers who would be able to meet this challenge. Montserrat Caballe was one of them. Her work here is simply breathtaking. It must be heard to be believed.

Above maestro Alain Lombard

Opera in five acts by Charles Gounod
Sung in french.
Recorded in 1976 , Palais de la Musique et des Congr茅s , Strasbourg.
Sound engineers : Pierre Lavoix and Peter Willem枚es

Cast :
Faust : Giacomo Aragall
Marguerite: Montserrat Caball茅
M茅phistoph茅les : Paul Plishka
Valentin : Philippe Huttenlocher
Si茅bel : Anita Terzian
Wagner : Jean Brun
Dame Marthe : Jocelyne Taillon
Choeurs de l麓Opera du Rhin
Orchestre Philharmonique de Strasbourg
Alain Lombard

Track Listing :

CD 1
1. Faust: Introduction
2. Faust: Act 1: Scene et choeur - 'Rien en vain j'interroge'
3. Faust: Act 1: Recitatif - 'Mais ce Dieu, que peut-il pour moi?'
4. Faust: Act 1: Duo - 'Me voici!'
5. Faust: Act 2: Choeur - 'Vin ou Biere'
6. Faust: Act 2: Scene et Recitatif - 'O sainte medaille'
7. Faust: Act 2: 'Avant de quitter ces lieux'
8. Faust: Act 2: Ronde du Veau d'Or - 'Le Veau d'Or est toujours debout!'
9. Faust: Act 2: Recitatif et choral des epees - 'Merci de ta chanson'
10. Faust: Act 2: Valse et Choeurs - 'Ainsi que la brise legere'
11. Faust: Act 3: Entr' acte et couplets - 'Faites-lui mes aveux'
12. Faust: Act 3: Scene et recitatif - 'C'est ici!' 'Suivez-moi?'
13. Faust: Act 3: Cavatine - 'Salut ! demeure chaste et pure'

CD 2
1. Faust: Act 3: Scene - 'Alerte, la voila !'
2. Faust: Act 3: Recitatif - 'Je voudrais bien savoir'
3. Faust: Act 3: Chanson du roi de Thule - 'Il etait un roi de Thule'
4. Faust: Act 3: Recitatif - 'Le grands seigneurs ont seuls'
5. Faust: Act 3: Air des Bijoux - 'Ah ! Je ris de me voir si belle'
6. Faust: Act 3: Scene - 'Seigneur Dieu, que vois-je'
7. Faust: Act 3: Quatour - 'Prenez mon bras un moment'
8. Faust: Act 3: Scene - 'Il etait temps'
9. Faust: Act 3: Duo - 'Il se fait tard, adieu !'
10. Faust: Act 3: 'Eternelle' 'O Nuit d'amour'
11. Faust: Act 3: 'Divine purete'
12. Faust: Act 3: 'Tenez! elle ouvre sa fenetre'
13. Faust: Act 4: 'Elles ne sont plus la'
14. Faust: Act 4: 'Il ne revient pas'
15. Faust: Act 4: Sene et recitatif - 'Marguerite' 'Siebel'
16. Faust: Act 4: 'Soyez beni Siebel'
17. Faust: Act 4: Scene de l'Eglise - 'Seigneur, daignez permettre'

CD 3
1. Faust: Act 4: Choeur des soldats - 'Deposons le armes'
2. Faust: Act 4: Recitatif - 'Allons Siebel'
3. Faust: Act 4: 'Qu'attendez-vous encore'
4. Faust: Act 4: Serenade - 'Vous qui faites l'endormie'
5. Faust: Act 4: Scene et trio du Duel - 'Que voulez-vous messieurs ?'
6. Faust: Act 4: Mort de Valentin - 'Par ici, par ici, mes amis !'
7. Faust: Act 5: La nuit de Walpurgis - 'Dans les Bruyeres'
8. Faust: Act 5: Scene et choeur - 'Jusqu'aux premiers feux du matin'
9. Faust: Act 5: Ballet
10. Faust: Act 5: 'Que ton ivresse'
11. Faust: Act 5: Scebe de la prison - 'Va-t'en !'
12. Faust: Act 5: 'Mon coeur est penetre d'epouvante'
13. Faust: Act 5: Trio - Finale - 'Alerte !'
14. Faust: Act 5: Apotheose - 'Sauvee'

CD 1
EAC LOG
Exact Audio Copy V1.0 beta 3 from 29. August 2011

EAC extraction logfile from 15. August 2012, 20:49

Gounod - Faust - Caball茅 Aragall - Plishka / Faust - CD 1

Used drive : SONY DVD RW DRU-840A Adapter: 0 ID: 1

Read mode : Secure
Utilize accurate stream : Yes
Defeat audio cache : Yes
Make use of C2 pointers : No

Read offset correction : 6
Overread into Lead-In and Lead-Out : No
Fill up missing offset samples with silence : Yes
Delete leading and trailing silent blocks : No
Null samples used in CRC calculations : Yes
Used interface : Native Win32 interface for Win NT & 2000
Gap handling : Not detected, thus appended to previous track

Used output format : User Defined Encoder
Selected bitrate : 320 kBit/s
Quality : High
Add ID3 tag : No
Command line compressor : C:Archivos de programaExact Audio CopyFLACFLAC.EXE
Additional command line options : -6 -V -T "ARTIST=%artist%" -T "TITLE=%title%" -T "ALBUM=%albumtitle%" -T "DATE=%year%" -T "TRACKNUMBER=%tracknr%" -T "GENRE=%genre%" -T "COMMENT=%comment%" -T "BAND=%albuminterpret%" -T "ALBUMARTIST=%albuminterpret%" -T "COMPOSER=%composer%" %haslyrics%--tag-from-file=LYRICS="%lyricsfile%"%haslyrics% -T "DISCNUMBER=%cdnumber%" -T "TOTALDISCS=%totalcds%" -T "TOTALTRACKS=%numtracks%" %hascover%--picture="%coverfile%"%hascover% %source% -o %dest% TOC of the extracted CD

Track | Start | Length | Start sector | End sector
---------------------------------------------------------
1 | 0:00.00 | 7:10.22 | 0 | 32271
2 | 7:10.22 | 7:53.38 | 32272 | 67784
3 | 15:03.60 | 1:12.57 | 67785 | 73241
4 | 16:16.42 | 8:51.20 | 73242 | 113086
5 | 25:07.62 | 5:09.50 | 113087 | 136311
6 | 30:17.37 | 1:34.13 | 136312 | 143374
7 | 31:51.50 | 5:07.62 | 143375 | 166461
8 | 36:59.37 | 2:03.38 | 166462 | 175724
9 | 39:03.00 | 6:16.42 | 175725 | 203966
10 | 45:19.42 | 7:13.18 | 203967 | 236459
11 | 52:32.60 | 4:20.35 | 236460 | 255994
12 | 56:53.20 | 3:23.25 | 255995 | 271244
13 | 60:16.45 | 4:30.17 | 271245 | 291511 Track 1

Filename E:MUSICAMi M煤sicaGounod - Faust - Caball茅 - Aragall - PlishkaGounod - Faust - Caball茅 - Aragall - Plishka - CD 1CD1 Introduction.wav

Peak level 59.1 %
Extraction speed 2.0 X
Track quality 99.9 %
Test CRC DA9936D3
Copy CRC DA9936D3
Track not present in AccurateRip database
Copy OK

Track 2

Filename E:MUSICAMi M煤sicaGounod - Faust - Caball茅 - Aragall - PlishkaGounod - Faust - Caball茅 - Aragall - Plishka - CD 1CD2 Rien en vain j'interroge.wav

Peak level 77.4 %
Extraction speed 2.5 X
Track quality 100.0 %
Test CRC 81F1AFC9
Copy CRC 81F1AFC9
Track not present in AccurateRip database
Copy OK

Track 3

Filename E:MUSICAMi M煤sicaGounod - Faust - Caball茅 - Aragall - PlishkaGounod - Faust - Caball茅 - Aragall - Plishka - CD 1CD3 Mais ce Dieu, que peut-il pour moi.wav

Peak level 73.6 %
Extraction speed 1.9 X
Track quality 100.0 %
Test CRC B0DFF14F
Copy CRC B0DFF14F
Track not present in AccurateRip database
Copy OK

Track 4

Filename E:MUSICAMi M煤sicaGounod - Faust - Caball茅 - Aragall - PlishkaGounod - Faust - Caball茅 - Aragall - Plishka - CD 1CD4 Me voici !.wav

Peak level 60.1 %
Extraction speed 2.9 X
Track quality 100.0 %
Test CRC 295BE8FB
Copy CRC 295BE8FB
Track not present in AccurateRip database
Copy OK

Track 5

Filename E:MUSICAMi M煤sicaGounod - Faust - Caball茅 - Aragall - PlishkaGounod - Faust - Caball茅 - Aragall - Plishka - CD 1CD5 Vin ou Biere.wav

Peak level 91.9 %
Extraction speed 3.0 X
Track quality 100.0 %
Test CRC D817561C
Copy CRC D817561C
Track not present in AccurateRip database
Copy OK

Track 6

Filename E:MUSICAMi M煤sicaGounod - Faust - Caball茅 - Aragall - PlishkaGounod - Faust - Caball茅 - Aragall - Plishka - CD 1CD6 Avant de quitter ces lieux.wav

Peak level 33.0 %
Extraction speed 2.5 X
Track quality 100.0 %
Test CRC 88D201B1
Copy CRC 88D201B1
Track not present in AccurateRip database
Copy OK

Track 7

Filename E:MUSICAMi M煤sicaGounod - Faust - Caball茅 - Aragall - PlishkaGounod - Faust - Caball茅 - Aragall - Plishka - CD 1CD7 Le Veau d'Or est toujours debout !.wav

Peak level 47.2 %
Extraction speed 3.3 X
Track quality 100.0 %
Test CRC 536BD1EB
Copy CRC 536BD1EB
Track not present in AccurateRip database
Copy OK

Track 8

Filename E:MUSICAMi M煤sicaGounod - Faust - Caball茅 - Aragall - PlishkaGounod - Faust - Caball茅 - Aragall - Plishka - CD 1CD8 Le Veau d'Or est toujours debout !.wav

Peak level 79.1 %
Extraction speed 1.9 X
Track quality 99.9 %
Test CRC 8F931FBF
Copy CRC 8F931FBF
Track not present in AccurateRip database
Copy OK

Track 9

Filename E:MUSICAMi M煤sicaGounod - Faust - Caball茅 - Aragall - PlishkaGounod - Faust - Caball茅 - Aragall - Plishka - CD 1CD9 Recitatif et choral des epees.wav

Peak level 75.3 %
Extraction speed 3.6 X
Track quality 100.0 %
Test CRC 31CC3ADA
Copy CRC 31CC3ADA
Track not present in AccurateRip database
Copy OK

Track 10

Filename E:MUSICAMi M煤sicaGounod - Faust - Caball茅 - Aragall - PlishkaGounod - Faust - Caball茅 - Aragall - Plishka - CD 1CD10 Ainsi que la brise legere.wav

Peak level 89.6 %
Extraction speed 3.1 X
Track quality 99.9 %
Test CRC F1690377
Copy CRC F1690377
Track not present in AccurateRip database
Copy OK

Track 11

Filename E:MUSICAMi M煤sicaGounod - Faust - Caball茅 - Aragall - PlishkaGounod - Faust - Caball茅 - Aragall - Plishka - CD 1CD11 Faites-lui mes aveux.wav

Peak level 46.0 %
Extraction speed 3.7 X
Track quality 100.0 %
Test CRC EC3C8682
Copy CRC EC3C8682
Track not present in AccurateRip database
Copy OK

Track 12

Filename E:MUSICAMi M煤sicaGounod - Faust - Caball茅 - Aragall - PlishkaGounod - Faust - Caball茅 - Aragall - Plishka - CD 1CD12 C'est ici !.wav

Peak level 39.2 %
Extraction speed 3.7 X
Track quality 100.0 %
Test CRC 67E792F2
Copy CRC 67E792F2
Track not present in AccurateRip database
Copy OK

Track 13

Filename E:MUSICAMi M煤sicaGounod - Faust - Caball茅 - Aragall - PlishkaGounod - Faust - Caball茅 - Aragall - Plishka - CD 1CD13 Salut ! demeure chaste et pure.wav

Peak level 37.2 %
Extraction speed 2.9 X
Track quality 99.9 %
Test CRC 4FE92C29
Copy CRC 4FE92C29
Track not present in AccurateRip database
Copy OK None of the tracks are present in the AccurateRip database

No errors occurred

End of status report

==== Log checksum E68FE6E50C593D119310239660111B3C68FAC3227652621032CFB8D3DB8D14D8 ====

------------------------------------------------------------

Exact Audio Copy V1.0 beta 3 from 29. August 2011

EAC extraction logfile from 15. August 2012, 20:49

Gounod - Faust - Caball茅 Aragall - Plishka / Faust - CD 1

Used drive : SONY DVD RW DRU-840A Adapter: 0 ID: 1

Read mode : Secure
Utilize accurate stream : Yes
Defeat audio cache : Yes
Make use of C2 pointers : No

Read offset correction : 6
Overread into Lead-In and Lead-Out : No
Fill up missing offset samples with silence : Yes
Delete leading and trailing silent blocks : No
Null samples used in CRC calculations : Yes
Used interface : Native Win32 interface for Win NT & 2000
Gap handling : Not detected, thus appended to previous track

Used output format : User Defined Encoder
Selected bitrate : 320 kBit/s
Quality : High
Add ID3 tag : No
Command line compressor : C:Archivos de programaExact Audio CopyFLACFLAC.EXE
Additional command line options : -6 -V -T "ARTIST=%artist%" -T "TITLE=%title%" -T "ALBUM=%albumtitle%" -T "DATE=%year%" -T "TRACKNUMBER=%tracknr%" -T "GENRE=%genre%" -T "COMMENT=%comment%" -T "BAND=%albuminterpret%" -T "ALBUMARTIST=%albuminterpret%" -T "COMPOSER=%composer%" %haslyrics%--tag-from-file=LYRICS="%lyricsfile%"%haslyrics% -T "DISCNUMBER=%cdnumber%" -T "TOTALDISCS=%totalcds%" -T "TOTALTRACKS=%numtracks%" %hascover%--picture="%coverfile%"%hascover% %source% -o %dest% TOC of the extracted CD

Track | Start | Length | Start sector | End sector
---------------------------------------------------------
1 | 0:00.00 | 7:10.22 | 0 | 32271
2 | 7:10.22 | 7:53.38 | 32272 | 67784
3 | 15:03.60 | 1:12.57 | 67785 | 73241
4 | 16:16.42 | 8:51.20 | 73242 | 113086
5 | 25:07.62 | 5:09.50 | 113087 | 136311
6 | 30:17.37 | 1:34.13 | 136312 | 143374
7 | 31:51.50 | 5:07.62 | 143375 | 166461
8 | 36:59.37 | 2:03.38 | 166462 | 175724
9 | 39:03.00 | 6:16.42 | 175725 | 203966
10 | 45:19.42 | 7:13.18 | 203967 | 236459
11 | 52:32.60 | 4:20.35 | 236460 | 255994
12 | 56:53.20 | 3:23.25 | 255995 | 271244
13 | 60:16.45 | 4:30.17 | 271245 | 291511 Track 1

Filename E:MUSICAMi M煤sicaGounod - Faust - Caball茅 - Aragall - PlishkaGounod - Faust - Caball茅 - Aragall - Plishka - CD 1CD1 Introduction.wav

Peak level 59.1 %
Extraction speed 2.0 X
Track quality 99.9 %
Test CRC DA9936D3
Copy CRC DA9936D3
Track not present in AccurateRip database
Copy OK

Track 2

Filename E:MUSICAMi M煤sicaGounod - Faust - Caball茅 - Aragall - PlishkaGounod - Faust - Caball茅 - Aragall - Plishka - CD 1CD2 Rien en vain j'interroge.wav

Peak level 77.4 %
Extraction speed 2.5 X
Track quality 100.0 %
Test CRC 81F1AFC9
Copy CRC 81F1AFC9
Track not present in AccurateRip database
Copy OK

Track 3

Filename E:MUSICAMi M煤sicaGounod - Faust - Caball茅 - Aragall - PlishkaGounod - Faust - Caball茅 - Aragall - Plishka - CD 1CD3 Mais ce Dieu, que peut-il pour moi.wav

Peak level 73.6 %
Extraction speed 1.9 X
Track quality 100.0 %
Test CRC B0DFF14F
Copy CRC B0DFF14F
Track not present in AccurateRip database
Copy OK

Track 4

Filename E:MUSICAMi M煤sicaGounod - Faust - Caball茅 - Aragall - PlishkaGounod - Faust - Caball茅 - Aragall - Plishka - CD 1CD4 Me voici !.wav

Peak level 60.1 %
Extraction speed 2.9 X
Track quality 100.0 %
Test CRC 295BE8FB
Copy CRC 295BE8FB
Track not present in AccurateRip database
Copy OK

Track 5

Filename E:MUSICAMi M煤sicaGounod - Faust - Caball茅 - Aragall - PlishkaGounod - Faust - Caball茅 - Aragall - Plishka - CD 1CD5 Vin ou Biere.wav

Peak level 91.9 %
Extraction speed 3.0 X
Track quality 100.0 %
Test CRC D817561C
Copy CRC D817561C
Track not present in AccurateRip database
Copy OK

Track 6

Filename E:MUSICAMi M煤sicaGounod - Faust - Caball茅 - Aragall - PlishkaGounod - Faust - Caball茅 - Aragall - Plishka - CD 1CD6 Avant de quitter ces lieux.wav

Peak level 33.0 %
Extraction speed 2.5 X
Track quality 100.0 %
Test CRC 88D201B1
Copy CRC 88D201B1
Track not present in AccurateRip database
Copy OK

Track 7

Filename E:MUSICAMi M煤sicaGounod - Faust - Caball茅 - Aragall - PlishkaGounod - Faust - Caball茅 - Aragall - Plishka - CD 1CD7 Le Veau d'Or est toujours debout !.wav

Peak level 47.2 %
Extraction speed 3.3 X
Track quality 100.0 %
Test CRC 536BD1EB
Copy CRC 536BD1EB
Track not present in AccurateRip database
Copy OK

Track 8

Filename E:MUSICAMi M煤sicaGounod - Faust - Caball茅 - Aragall - PlishkaGounod - Faust - Caball茅 - Aragall - Plishka - CD 1CD8 Le Veau d'Or est toujours debout !.wav

Peak level 79.1 %
Extraction speed 1.9 X
Track quality 99.9 %
Test CRC 8F931FBF
Copy CRC 8F931FBF
Track not present in AccurateRip database
Copy OK

Track 9

Filename E:MUSICAMi M煤sicaGounod - Faust - Caball茅 - Aragall - PlishkaGounod - Faust - Caball茅 - Aragall - Plishka - CD 1CD9 Recitatif et choral des epees.wav

Peak level 75.3 %
Extraction speed 3.6 X
Track quality 100.0 %
Test CRC 31CC3ADA
Copy CRC 31CC3ADA
Track not present in AccurateRip database
Copy OK

Track 10

Filename E:MUSICAMi M煤sicaGounod - Faust - Caball茅 - Aragall - PlishkaGounod - Faust - Caball茅 - Aragall - Plishka - CD 1CD10 Ainsi que la brise legere.wav

Peak level 89.6 %
Extraction speed 3.1 X
Track quality 99.9 %
Test CRC F1690377
Copy CRC F1690377
Track not present in AccurateRip database
Copy OK

Track 11

Filename E:MUSICAMi M煤sicaGounod - Faust - Caball茅 - Aragall - PlishkaGounod - Faust - Caball茅 - Aragall - Plishka - CD 1CD11 Faites-lui mes aveux.wav

Peak level 46.0 %
Extraction speed 3.7 X
Track quality 100.0 %
Test CRC EC3C8682
Copy CRC EC3C8682
Track not present in AccurateRip database
Copy OK

Track 12

Filename E:MUSICAMi M煤sicaGounod - Faust - Caball茅 - Aragall - PlishkaGounod - Faust - Caball茅 - Aragall - Plishka - CD 1CD12 C'est ici !.wav

Peak level 39.2 %
Extraction speed 3.7 X
Track quality 100.0 %
Test CRC 67E792F2
Copy CRC 67E792F2
Track not present in AccurateRip database
Copy OK

Track 13

Filename E:MUSICAMi M煤sicaGounod - Faust - Caball茅 - Aragall - PlishkaGounod - Faust - Caball茅 - Aragall - Plishka - CD 1CD13 Salut ! demeure chaste et pure.wav

Peak level 37.2 %
Extraction speed 2.9 X
Track quality 99.9 %
Test CRC 4FE92C29
Copy CRC 4FE92C29
Track not present in AccurateRip database
Copy OK None of the tracks are present in the AccurateRip database

No errors occurred

End of status report

==== Log checksum E68FE6E50C593D119310239660111B3C68FAC3227652621032CFB8D3DB8D14D8 ====

CD 2
EAC LOG
Exact Audio Copy V1.0 beta 3 from 29. August 2011

EAC extraction logfile from 18. August 2012, 10:10

Gounod - Faust - Caball茅 - Aragall - Lombard / Faust - Caball茅 - Aragall - Plishka - CD 2

Used drive : SONY DVD RW DRU-840A Adapter: 0 ID: 1

Read mode : Secure
Utilize accurate stream : Yes
Defeat audio cache : Yes
Make use of C2 pointers : No

Read offset correction : 6
Overread into Lead-In and Lead-Out : No
Fill up missing offset samples with silence : Yes
Delete leading and trailing silent blocks : No
Null samples used in CRC calculations : Yes
Used interface : Native Win32 interface for Win NT & 2000
Gap handling : Not detected, thus appended to previous track

Used output format : User Defined Encoder
Selected bitrate : 320 kBit/s
Quality : High
Add ID3 tag : No
Command line compressor : C:Archivos de programaExact Audio CopyFLACFLAC.EXE
Additional command line options : -6 -V -T "ARTIST=%artist%" -T "TITLE=%title%" -T "ALBUM=%albumtitle%" -T "DATE=%year%" -T "TRACKNUMBER=%tracknr%" -T "GENRE=%genre%" -T "COMMENT=%comment%" -T "BAND=%albuminterpret%" -T "ALBUMARTIST=%albuminterpret%" -T "COMPOSER=%composer%" %haslyrics%--tag-from-file=LYRICS="%lyricsfile%"%haslyrics% -T "DISCNUMBER=%cdnumber%" -T "TOTALDISCS=%totalcds%" -T "TOTALTRACKS=%numtracks%" %hascover%--picture="%coverfile%"%hascover% %source% -o %dest% TOC of the extracted CD

Track | Start | Length | Start sector | End sector
---------------------------------------------------------
1 | 0:00.00 | 0:40.45 | 0 | 3044
2 | 0:40.45 | 1:57.05 | 3045 | 11824
3 | 2:37.50 | 4:07.35 | 11825 | 30384
4 | 6:45.10 | 2:05.18 | 30385 | 39777
5 | 8:50.28 | 3:43.22 | 39778 | 56524
6 | 12:33.50 | 2:55.38 | 56525 | 69687
7 | 15:29.13 | 6:51.25 | 69688 | 100537
8 | 22:20.38 | 1:58.22 | 100538 | 109409
9 | 24:18.60 | 3:41.65 | 109410 | 126049
10 | 28:00.50 | 4:36.08 | 126050 | 146757
11 | 32:36.58 | 2:14.20 | 146758 | 156827
12 | 34:51.03 | 3:45.00 | 156828 | 173702
13 | 38:36.03 | 4:22.40 | 173703 | 193392
14 | 42:58.43 | 5:27.05 | 193393 | 217922
15 | 48:25.48 | 1:25.32 | 217923 | 224329
16 | 49:51.05 | 1:58.58 | 224330 | 233237
17 | 51:49.63 | 11:12.52 | 233238 | 283689 Track 1

Filename E:MUSICAMi M煤sicaGounod - Faust - Caball茅 - Aragall - PlishkaGounod - Faust - Caball茅 - Aragall - Plishka - CD 21 Alerte, la voila !.wav

Peak level 44.6 %
Extraction speed 1.0 X
Track quality 100.0 %
Test CRC A831B852
Copy CRC A831B852
Track not present in AccurateRip database
Copy OK

Track 2

Filename E:MUSICAMi M煤sicaGounod - Faust - Caball茅 - Aragall - PlishkaGounod - Faust - Caball茅 - Aragall - Plishka - CD 22 Je voudrais bien savoir.wav

Peak level 16.3 %
Extraction speed 1.7 X
Track quality 100.0 %
Test CRC 7BF4D5B2
Copy CRC 7BF4D5B2
Track not present in AccurateRip database
Copy OK

Track 3

Filename E:MUSICAMi M煤sicaGounod - Faust - Caball茅 - Aragall - PlishkaGounod - Faust - Caball茅 - Aragall - Plishka - CD 23 Il etait un roi de Thule.wav

Peak level 42.8 %
Extraction speed 2.1 X
Track quality 100.0 %
Test CRC 1AE9B9DE
Copy CRC 1AE9B9DE
Track not present in AccurateRip database
Copy OK

Track 4

Filename E:MUSICAMi M煤sicaGounod - Faust - Caball茅 - Aragall - PlishkaGounod - Faust - Caball茅 - Aragall - Plishka - CD 24 Le grands seigneurs ont seuls.wav

Peak level 75.4 %
Extraction speed 2.0 X
Track quality 100.0 %
Test CRC 86241AA6
Copy CRC 86241AA6
Track not present in AccurateRip database
Copy OK

Track 5

Filename E:MUSICAMi M煤sicaGounod - Faust - Caball茅 - Aragall - PlishkaGounod - Faust - Caball茅 - Aragall - Plishka - CD 25 Ah ! Je ris de me voir si belle.wav

Peak level 72.9 %
Extraction speed 2.0 X
Track quality 99.9 %
Test CRC F65EB14C
Copy CRC F65EB14C
Track not present in AccurateRip database
Copy OK

Track 6

Filename E:MUSICAMi M煤sicaGounod - Faust - Caball茅 - Aragall - PlishkaGounod - Faust - Caball茅 - Aragall - Plishka - CD 26 Seigneur Dieu, que vois-je.wav

Peak level 56.1 %
Extraction speed 2.4 X
Track quality 100.0 %
Test CRC 1E6BB8AF
Copy CRC 1E6BB8AF
Track not present in AccurateRip database
Copy OK

Track 7

Filename E:MUSICAMi M煤sicaGounod - Faust - Caball茅 - Aragall - PlishkaGounod - Faust - Caball茅 - Aragall - Plishka - CD 27 Prenez mon bras un moment.wav

Peak level 73.3 %
Extraction speed 2.5 X
Track quality 99.9 %
Test CRC A74A62CC
Copy CRC A74A62CC
Track not present in AccurateRip database
Copy OK

Track 8

Filename E:MUSICAMi M煤sicaGounod - Faust - Caball茅 - Aragall - PlishkaGounod - Faust - Caball茅 - Aragall - Plishka - CD 28 Il etait temps.wav

Peak level 41.8 %
Extraction speed 2.4 X
Track quality 100.0 %
Test CRC 1F96937E
Copy CRC 1F96937E
Track not present in AccurateRip database
Copy OK

Track 9

Filename E:MUSICAMi M煤sicaGounod - Faust - Caball茅 - Aragall - PlishkaGounod - Faust - Caball茅 - Aragall - Plishka - CD 29 Il se fait tard, adieu !.wav

Peak level 63.3 %
Extraction speed 2.9 X
Track quality 100.0 %
Test CRC 0E38B8B0
Copy CRC 0E38B8B0
Track not present in AccurateRip database
Copy OK

Track 10

Filename E:MUSICAMi M煤sicaGounod - Faust - Caball茅 - Aragall - PlishkaGounod - Faust - Caball茅 - Aragall - Plishka - CD 210 Eternelle. O Nuit d'amour.wav

Peak level 87.0 %
Extraction speed 3.1 X
Track quality 100.0 %
Test CRC CB49D9F8
Copy CRC CB49D9F8
Track not present in AccurateRip database
Copy OK

Track 11

Filename E:MUSICAMi M煤sicaGounod - Faust - Caball茅 - Aragall - PlishkaGounod - Faust - Caball茅 - Aragall - Plishka - CD 211 Divine purete.wav

Peak level 69.8 %
Extraction speed 2.8 X
Track quality 100.0 %
Test CRC 3A20B70D
Copy CRC 3A20B70D
Track not present in AccurateRip database
Copy OK

Track 12

Filename E:MUSICAMi M煤sicaGounod - Faust - Caball茅 - Aragall - PlishkaGounod - Faust - Caball茅 - Aragall - Plishka - CD 212 Tenez! elle ouvre sa fenetre.wav

Peak level 66.7 %
Extraction speed 3.2 X
Track quality 100.0 %
Test CRC F685A205
Copy CRC F685A205
Track not present in AccurateRip database
Copy OK

Track 13

Filename E:MUSICAMi M煤sicaGounod - Faust - Caball茅 - Aragall - PlishkaGounod - Faust - Caball茅 - Aragall - Plishka - CD 213 Elles ne sont plus la.wav

Peak level 60.8 %
Extraction speed 3.3 X
Track quality 100.0 %
Test CRC F022F1D6
Copy CRC F022F1D6
Track not present in AccurateRip database
Copy OK

Track 14

Filename E:MUSICAMi M煤sicaGounod - Faust - Caball茅 - Aragall - PlishkaGounod - Faust - Caball茅 - Aragall - Plishka - CD 214 Il ne revient pas.wav

Peak level 71.8 %
Extraction speed 3.6 X
Track quality 100.0 %
Test CRC 5AF84EA4
Copy CRC 5AF84EA4
Track not present in AccurateRip database
Copy OK

Track 15

Filename E:MUSICAMi M煤sicaGounod - Faust - Caball茅 - Aragall - PlishkaGounod - Faust - Caball茅 - Aragall - Plishka - CD 215 Marguerite. Siebel..wav

Peak level 64.0 %
Extraction speed 2.9 X
Track quality 100.0 %
Test CRC 48258CDB
Copy CRC 48258CDB
Track not present in AccurateRip database
Copy OK

Track 16

Filename E:MUSICAMi M煤sicaGounod - Faust - Caball茅 - Aragall - PlishkaGounod - Faust - Caball茅 - Aragall - Plishka - CD 216 Soyez beni Siebel.wav

Peak level 34.1 %
Extraction speed 3.2 X
Track quality 100.0 %
Test CRC F6FDE4BD
Copy CRC F6FDE4BD
Track not present in AccurateRip database
Copy OK

Track 17

Filename E:MUSICAMi M煤sicaGounod - Faust - Caball茅 - Aragall - PlishkaGounod - Faust - Caball茅 - Aragall - Plishka - CD 217 Seigneur, daignez permettre.wav

Peak level 72.3 %
Extraction speed 4.2 X
Track quality 100.0 %
Test CRC 001EF489
Copy CRC 001EF489
Track not present in AccurateRip database
Copy OK None of the tracks are present in the AccurateRip database

No errors occurred

End of status report

==== Log checksum EB5AEAB5AFC86CE7FB2B993C76CE2949037D9A5125D5DA396DD018151130DCF3 ====

------------------------------------------------------------

Exact Audio Copy V1.0 beta 3 from 29. August 2011

EAC extraction logfile from 18. August 2012, 10:10

Gounod - Faust - Caball茅 - Aragall - Lombard / Faust - Caball茅 - Aragall - Plishka - CD 2

Used drive : SONY DVD RW DRU-840A Adapter: 0 ID: 1

Read mode : Secure
Utilize accurate stream : Yes
Defeat audio cache : Yes
Make use of C2 pointers : No

Read offset correction : 6
Overread into Lead-In and Lead-Out : No
Fill up missing offset samples with silence : Yes
Delete leading and trailing silent blocks : No
Null samples used in CRC calculations : Yes
Used interface : Native Win32 interface for Win NT & 2000
Gap handling : Not detected, thus appended to previous track

Used output format : User Defined Encoder
Selected bitrate : 320 kBit/s
Quality : High
Add ID3 tag : No
Command line compressor : C:Archivos de programaExact Audio CopyFLACFLAC.EXE
Additional command line options : -6 -V -T "ARTIST=%artist%" -T "TITLE=%title%" -T "ALBUM=%albumtitle%" -T "DATE=%year%" -T "TRACKNUMBER=%tracknr%" -T "GENRE=%genre%" -T "COMMENT=%comment%" -T "BAND=%albuminterpret%" -T "ALBUMARTIST=%albuminterpret%" -T "COMPOSER=%composer%" %haslyrics%--tag-from-file=LYRICS="%lyricsfile%"%haslyrics% -T "DISCNUMBER=%cdnumber%" -T "TOTALDISCS=%totalcds%" -T "TOTALTRACKS=%numtracks%" %hascover%--picture="%coverfile%"%hascover% %source% -o %dest% TOC of the extracted CD

Track | Start | Length | Start sector | End sector
---------------------------------------------------------
1 | 0:00.00 | 0:40.45 | 0 | 3044
2 | 0:40.45 | 1:57.05 | 3045 | 11824
3 | 2:37.50 | 4:07.35 | 11825 | 30384
4 | 6:45.10 | 2:05.18 | 30385 | 39777
5 | 8:50.28 | 3:43.22 | 39778 | 56524
6 | 12:33.50 | 2:55.38 | 56525 | 69687
7 | 15:29.13 | 6:51.25 | 69688 | 100537
8 | 22:20.38 | 1:58.22 | 100538 | 109409
9 | 24:18.60 | 3:41.65 | 109410 | 126049
10 | 28:00.50 | 4:36.08 | 126050 | 146757
11 | 32:36.58 | 2:14.20 | 146758 | 156827
12 | 34:51.03 | 3:45.00 | 156828 | 173702
13 | 38:36.03 | 4:22.40 | 173703 | 193392
14 | 42:58.43 | 5:27.05 | 193393 | 217922
15 | 48:25.48 | 1:25.32 | 217923 | 224329
16 | 49:51.05 | 1:58.58 | 224330 | 233237
17 | 51:49.63 | 11:12.52 | 233238 | 283689 Track 1

Filename E:MUSICAMi M煤sicaGounod - Faust - Caball茅 - Aragall - PlishkaGounod - Faust - Caball茅 - Aragall - Plishka - CD 21 Alerte, la voila !.wav

Peak level 44.6 %
Extraction speed 1.0 X
Track quality 100.0 %
Test CRC A831B852
Copy CRC A831B852
Track not present in AccurateRip database
Copy OK

Track 2

Filename E:MUSICAMi M煤sicaGounod - Faust - Caball茅 - Aragall - PlishkaGounod - Faust - Caball茅 - Aragall - Plishka - CD 22 Je voudrais bien savoir.wav

Peak level 16.3 %
Extraction speed 1.7 X
Track quality 100.0 %
Test CRC 7BF4D5B2
Copy CRC 7BF4D5B2
Track not present in AccurateRip database
Copy OK

Track 3

Filename E:MUSICAMi M煤sicaGounod - Faust - Caball茅 - Aragall - PlishkaGounod - Faust - Caball茅 - Aragall - Plishka - CD 23 Il etait un roi de Thule.wav

Peak level 42.8 %
Extraction speed 2.1 X
Track quality 100.0 %
Test CRC 1AE9B9DE
Copy CRC 1AE9B9DE
Track not present in AccurateRip database
Copy OK

Track 4

Filename E:MUSICAMi M煤sicaGounod - Faust - Caball茅 - Aragall - PlishkaGounod - Faust - Caball茅 - Aragall - Plishka - CD 24 Le grands seigneurs ont seuls.wav

Peak level 75.4 %
Extraction speed 2.0 X
Track quality 100.0 %
Test CRC 86241AA6
Copy CRC 86241AA6
Track not present in AccurateRip database
Copy OK

Track 5

Filename E:MUSICAMi M煤sicaGounod - Faust - Caball茅 - Aragall - PlishkaGounod - Faust - Caball茅 - Aragall - Plishka - CD 25 Ah ! Je ris de me voir si belle.wav

Peak level 72.9 %
Extraction speed 2.0 X
Track quality 99.9 %
Test CRC F65EB14C
Copy CRC F65EB14C
Track not present in AccurateRip database
Copy OK

Track 6

Filename E:MUSICAMi M煤sicaGounod - Faust - Caball茅 - Aragall - PlishkaGounod - Faust - Caball茅 - Aragall - Plishka - CD 26 Seigneur Dieu, que vois-je.wav

Peak level 56.1 %
Extraction speed 2.4 X
Track quality 100.0 %
Test CRC 1E6BB8AF
Copy CRC 1E6BB8AF
Track not present in AccurateRip database
Copy OK

Track 7

Filename E:MUSICAMi M煤sicaGounod - Faust - Caball茅 - Aragall - PlishkaGounod - Faust - Caball茅 - Aragall - Plishka - CD 27 Prenez mon bras un moment.wav

Peak level 73.3 %
Extraction speed 2.5 X
Track quality 99.9 %
Test CRC A74A62CC
Copy CRC A74A62CC
Track not present in AccurateRip database
Copy OK

Track 8

Filename E:MUSICAMi M煤sicaGounod - Faust - Caball茅 - Aragall - PlishkaGounod - Faust - Caball茅 - Aragall - Plishka - CD 28 Il etait temps.wav

Peak level 41.8 %
Extraction speed 2.4 X
Track quality 100.0 %
Test CRC 1F96937E
Copy CRC 1F96937E
Track not present in AccurateRip database
Copy OK

Track 9

Filename E:MUSICAMi M煤sicaGounod - Faust - Caball茅 - Aragall - PlishkaGounod - Faust - Caball茅 - Aragall - Plishka - CD 29 Il se fait tard, adieu !.wav

Peak level 63.3 %
Extraction speed 2.9 X
Track quality 100.0 %
Test CRC 0E38B8B0
Copy CRC 0E38B8B0
Track not present in AccurateRip database
Copy OK

Track 10

Filename E:MUSICAMi M煤sicaGounod - Faust - Caball茅 - Aragall - PlishkaGounod - Faust - Caball茅 - Aragall - Plishka - CD 210 Eternelle. O Nuit d'amour.wav

Peak level 87.0 %
Extraction speed 3.1 X
Track quality 100.0 %
Test CRC CB49D9F8
Copy CRC CB49D9F8
Track not present in AccurateRip database
Copy OK

Track 11

Filename E:MUSICAMi M煤sicaGounod - Faust - Caball茅 - Aragall - PlishkaGounod - Faust - Caball茅 - Aragall - Plishka - CD 211 Divine purete.wav

Peak level 69.8 %
Extraction speed 2.8 X
Track quality 100.0 %
Test CRC 3A20B70D
Copy CRC 3A20B70D
Track not present in AccurateRip database
Copy OK

Track 12

Filename E:MUSICAMi M煤sicaGounod - Faust - Caball茅 - Aragall - PlishkaGounod - Faust - Caball茅 - Aragall - Plishka - CD 212 Tenez! elle ouvre sa fenetre.wav

Peak level 66.7 %
Extraction speed 3.2 X
Track quality 100.0 %
Test CRC F685A205
Copy CRC F685A205
Track not present in AccurateRip database
Copy OK

Track 13

Filename E:MUSICAMi M煤sicaGounod - Faust - Caball茅 - Aragall - PlishkaGounod - Faust - Caball茅 - Aragall - Plishka - CD 213 Elles ne sont plus la.wav

Peak level 60.8 %
Extraction speed 3.3 X
Track quality 100.0 %
Test CRC F022F1D6
Copy CRC F022F1D6
Track not present in AccurateRip database
Copy OK

Track 14

Filename E:MUSICAMi M煤sicaGounod - Faust - Caball茅 - Aragall - PlishkaGounod - Faust - Caball茅 - Aragall - Plishka - CD 214 Il ne revient pas.wav

Peak level 71.8 %
Extraction speed 3.6 X
Track quality 100.0 %
Test CRC 5AF84EA4
Copy CRC 5AF84EA4
Track not present in AccurateRip database
Copy OK

Track 15

Filename E:MUSICAMi M煤sicaGounod - Faust - Caball茅 - Aragall - PlishkaGounod - Faust - Caball茅 - Aragall - Plishka - CD 215 Marguerite. Siebel..wav

Peak level 64.0 %
Extraction speed 2.9 X
Track quality 100.0 %
Test CRC 48258CDB
Copy CRC 48258CDB
Track not present in AccurateRip database
Copy OK

Track 16

Filename E:MUSICAMi M煤sicaGounod - Faust - Caball茅 - Aragall - PlishkaGounod - Faust - Caball茅 - Aragall - Plishka - CD 216 Soyez beni Siebel.wav

Peak level 34.1 %
Extraction speed 3.2 X
Track quality 100.0 %
Test CRC F6FDE4BD
Copy CRC F6FDE4BD
Track not present in AccurateRip database
Copy OK

Track 17

Filename E:MUSICAMi M煤sicaGounod - Faust - Caball茅 - Aragall - PlishkaGounod - Faust - Caball茅 - Aragall - Plishka - CD 217 Seigneur, daignez permettre.wav

Peak level 72.3 %
Extraction speed 4.2 X
Track quality 100.0 %
Test CRC 001EF489
Copy CRC 001EF489
Track not present in AccurateRip database
Copy OK None of the tracks are present in the AccurateRip database

No errors occurred

End of status report

==== Log checksum EB5AEAB5AFC86CE7FB2B993C76CE2949037D9A5125D5DA396DD018151130DCF3 ====

CD 3
EAC LOG
Exact Audio Copy V1.0 beta 3 from 29. August 2011

EAC extraction logfile from 17. August 2012, 19:56

Gounod - Faust - Caball茅 - Aragall - Plishka / Faust Caball茅 - Aragall - Lombard - CD 3

Used drive : SONY DVD RW DRU-840A Adapter: 0 ID: 1

Read mode : Secure
Utilize accurate stream : Yes
Defeat audio cache : Yes
Make use of C2 pointers : No

Read offset correction : 6
Overread into Lead-In and Lead-Out : No
Fill up missing offset samples with silence : Yes
Delete leading and trailing silent blocks : No
Null samples used in CRC calculations : Yes
Used interface : Native Win32 interface for Win NT & 2000
Gap handling : Not detected, thus appended to previous track

Used output format : User Defined Encoder
Selected bitrate : 320 kBit/s
Quality : High
Add ID3 tag : No
Command line compressor : C:Archivos de programaExact Audio CopyFLACFLAC.EXE
Additional command line options : -6 -V -T "ARTIST=%artist%" -T "TITLE=%title%" -T "ALBUM=%albumtitle%" -T "DATE=%year%" -T "TRACKNUMBER=%tracknr%" -T "GENRE=%genre%" -T "COMMENT=%comment%" -T "BAND=%albuminterpret%" -T "ALBUMARTIST=%albuminterpret%" -T "COMPOSER=%composer%" %haslyrics%--tag-from-file=LYRICS="%lyricsfile%"%haslyrics% -T "DISCNUMBER=%cdnumber%" -T "TOTALDISCS=%totalcds%" -T "TOTALTRACKS=%numtracks%" %hascover%--picture="%coverfile%"%hascover% %source% -o %dest% TOC of the extracted CD

Track | Start | Length | Start sector | End sector
---------------------------------------------------------
1 | 0:00.00 | 5:57.53 | 0 | 26827
2 | 5:57.53 | 0:46.25 | 26828 | 30302
3 | 6:44.03 | 1:15.67 | 30303 | 35994
4 | 7:59.70 | 2:43.33 | 35995 | 48252
5 | 10:43.28 | 4:06.45 | 48253 | 66747
6 | 14:49.73 | 6:34.65 | 66748 | 96362
7 | 21:24.63 | 3:20.50 | 96363 | 111412
8 | 24:45.38 | 4:07.67 | 111413 | 130004
9 | 28:53.30 | 15:54.28 | 130005 | 201582
10 | 44:47.58 | 2:14.07 | 201583 | 211639
11 | 47:01.65 | 5:09.50 | 211640 | 234864
12 | 52:11.40 | 6:39.43 | 234865 | 264832
13 | 58:51.08 | 3:40.35 | 264833 | 281367
14 | 62:31.43 | 2:44.32 | 281368 | 293699 Track 1

Filename E:MUSICAMi M煤sicaGounod - Faust - Caball茅 - Aragall - PlishkaGounod - Faust - Caball茅 - Aragall - Plishka - CD 31 Deposons le armes.wav

Peak level 83.0 %
Extraction speed 2.1 X
Track quality 100.0 %
Test CRC 699880D7
Copy CRC 699880D7
Track not present in AccurateRip database
Copy OK

Track 2

Filename E:MUSICAMi M煤sicaGounod - Faust - Caball茅 - Aragall - PlishkaGounod - Faust - Caball茅 - Aragall - Plishka - CD 32 Allons Siebel.wav

Peak level 74.9 %
Extraction speed 1.4 X
Track quality 100.0 %
Test CRC 44B38647
Copy CRC 44B38647
Track not present in AccurateRip database
Copy OK

Track 3

Filename E:MUSICAMi M煤sicaGounod - Faust - Caball茅 - Aragall - PlishkaGounod - Faust - Caball茅 - Aragall - Plishka - CD 33 Qu'attendez-vous encore.wav

Peak level 44.4 %
Extraction speed 1.7 X
Track quality 100.0 %
Test CRC 57A24F3F
Copy CRC 57A24F3F
Track not present in AccurateRip database
Copy OK

Track 4

Filename E:MUSICAMi M煤sicaGounod - Faust - Caball茅 - Aragall - PlishkaGounod - Faust - Caball茅 - Aragall - Plishka - CD 34 Vous qui faites l'endormie.wav

Peak level 53.4 %
Extraction speed 2.1 X
Track quality 100.0 %
Test CRC 618ABE25
Copy CRC 618ABE25
Track not present in AccurateRip database
Copy OK

Track 5

Filename E:MUSICAMi M煤sicaGounod - Faust - Caball茅 - Aragall - PlishkaGounod - Faust - Caball茅 - Aragall - Plishka - CD 35 Que voulez-vous messieurs.wav

Peak level 65.0 %
Extraction speed 2.4 X
Track quality 100.0 %
Test CRC A4310EA2
Copy CRC A4310EA2
Track not present in AccurateRip database
Copy OK

Track 6

Filename E:MUSICAMi M煤sicaGounod - Faust - Caball茅 - Aragall - PlishkaGounod - Faust - Caball茅 - Aragall - Plishka - CD 36 Par ici, par ici, mes amis !.wav

Peak level 88.7 %
Extraction speed 2.8 X
Track quality 100.0 %
Test CRC 0F1F1123
Copy CRC 0F1F1123
Track not present in AccurateRip database
Copy OK

Track 7

Filename E:MUSICAMi M煤sicaGounod - Faust - Caball茅 - Aragall - PlishkaGounod - Faust - Caball茅 - Aragall - Plishka - CD 37 Dans les Bruyeres.wav

Peak level 89.5 %
Extraction speed 2.7 X
Track quality 100.0 %
Test CRC BE0AAD26
Copy CRC BE0AAD26
Track not present in AccurateRip database
Copy OK

Track 8

Filename E:MUSICAMi M煤sicaGounod - Faust - Caball茅 - Aragall - PlishkaGounod - Faust - Caball茅 - Aragall - Plishka - CD 38 Jusqu'aux premiers feux du matin.wav

Peak level 74.8 %
Extraction speed 2.9 X
Track quality 100.0 %
Test CRC 4A298393
Copy CRC 4A298393
Track not present in AccurateRip database
Copy OK

Track 9

Filename E:MUSICAMi M煤sicaGounod - Faust - Caball茅 - Aragall - PlishkaGounod - Faust - Caball茅 - Aragall - Plishka - CD 39 Ballet.wav

Peak level 62.1 %
Extraction speed 3.4 X
Track quality 99.9 %
Test CRC 484CC27F
Copy CRC 484CC27F
Track not present in AccurateRip database
Copy OK

Track 10

Filename E:MUSICAMi M煤sicaGounod - Faust - Caball茅 - Aragall - PlishkaGounod - Faust - Caball茅 - Aragall - Plishka - CD 310 Que ton ivresse.wav

Peak level 80.9 %
Extraction speed 2.0 X
Track quality 99.9 %
Test CRC 274AAB9F
Copy CRC 274AAB9F
Track not present in AccurateRip database
Copy OK

Track 11

Filename E:MUSICAMi M煤sicaGounod - Faust - Caball茅 - Aragall - PlishkaGounod - Faust - Caball茅 - Aragall - Plishka - CD 311 Va-t'en.wav

Peak level 60.0 %
Extraction speed 3.7 X
Track quality 100.0 %
Test CRC B409C9B2
Copy CRC B409C9B2
Track not present in AccurateRip database
Copy OK

Track 12

Filename E:MUSICAMi M煤sicaGounod - Faust - Caball茅 - Aragall - PlishkaGounod - Faust - Caball茅 - Aragall - Plishka - CD 312 Mon coeur est penetre d'epouvante.wav

Peak level 69.1 %
Extraction speed 3.9 X
Track quality 100.0 %
Test CRC B4C495AC
Copy CRC B4C495AC
Track not present in AccurateRip database
Copy OK

Track 13

Filename E:MUSICAMi M煤sicaGounod - Faust - Caball茅 - Aragall - PlishkaGounod - Faust - Caball茅 - Aragall - Plishka - CD 313 Alerte !.wav

Peak level 74.6 %
Extraction speed 3.8 X
Track quality 100.0 %
Test CRC 230D07E0
Copy CRC 230D07E0
Track not present in AccurateRip database
Copy OK

Track 14

Filename E:MUSICAMi M煤sicaGounod - Faust - Caball茅 - Aragall - PlishkaGounod - Faust - Caball茅 - Aragall - Plishka - CD 314 Sauvee.wav

Peak level 64.3 %
Extraction speed 3.7 X
Track quality 100.0 %
Test CRC 3059262D
Copy CRC 3059262D
Track not present in AccurateRip database
Copy OK None of the tracks are present in the AccurateRip database

No errors occurred

End of status report

==== Log checksum 8C5AFBC4AD9736D07C9C13C9BA8BE1019D796BCAE2D2285DEED58C5BF021F194 ====

------------------------------------------------------------

Exact Audio Copy V1.0 beta 3 from 29. August 2011

EAC extraction logfile from 17. August 2012, 19:56

Gounod - Faust - Caball茅 - Aragall - Plishka / Faust Caball茅 - Aragall - Lombard - CD 3

Used drive : SONY DVD RW DRU-840A Adapter: 0 ID: 1

Read mode : Secure
Utilize accurate stream : Yes
Defeat audio cache : Yes
Make use of C2 pointers : No

Read offset correction : 6
Overread into Lead-In and Lead-Out : No
Fill up missing offset samples with silence : Yes
Delete leading and trailing silent blocks : No
Null samples used in CRC calculations : Yes
Used interface : Native Win32 interface for Win NT & 2000
Gap handling : Not detected, thus appended to previous track

Used output format : User Defined Encoder
Selected bitrate : 320 kBit/s
Quality : High
Add ID3 tag : No
Command line compressor : C:Archivos de programaExact Audio CopyFLACFLAC.EXE
Additional command line options : -6 -V -T "ARTIST=%artist%" -T "TITLE=%title%" -T "ALBUM=%albumtitle%" -T "DATE=%year%" -T "TRACKNUMBER=%tracknr%" -T "GENRE=%genre%" -T "COMMENT=%comment%" -T "BAND=%albuminterpret%" -T "ALBUMARTIST=%albuminterpret%" -T "COMPOSER=%composer%" %haslyrics%--tag-from-file=LYRICS="%lyricsfile%"%haslyrics% -T "DISCNUMBER=%cdnumber%" -T "TOTALDISCS=%totalcds%" -T "TOTALTRACKS=%numtracks%" %hascover%--picture="%coverfile%"%hascover% %source% -o %dest% TOC of the extracted CD

Track | Start | Length | Start sector | End sector
---------------------------------------------------------
1 | 0:00.00 | 5:57.53 | 0 | 26827
2 | 5:57.53 | 0:46.25 | 26828 | 30302
3 | 6:44.03 | 1:15.67 | 30303 | 35994
4 | 7:59.70 | 2:43.33 | 35995 | 48252
5 | 10:43.28 | 4:06.45 | 48253 | 66747
6 | 14:49.73 | 6:34.65 | 66748 | 96362
7 | 21:24.63 | 3:20.50 | 96363 | 111412
8 | 24:45.38 | 4:07.67 | 111413 | 130004
9 | 28:53.30 | 15:54.28 | 130005 | 201582
10 | 44:47.58 | 2:14.07 | 201583 | 211639
11 | 47:01.65 | 5:09.50 | 211640 | 234864
12 | 52:11.40 | 6:39.43 | 234865 | 264832
13 | 58:51.08 | 3:40.35 | 264833 | 281367
14 | 62:31.43 | 2:44.32 | 281368 | 293699 Track 1

Filename E:MUSICAMi M煤sicaGounod - Faust - Caball茅 - Aragall - PlishkaGounod - Faust - Caball茅 - Aragall - Plishka - CD 31 Deposons le armes.wav

Peak level 83.0 %
Extraction speed 2.1 X
Track quality 100.0 %
Test CRC 699880D7
Copy CRC 699880D7
Track not present in AccurateRip database
Copy OK

Track 2

Filename E:MUSICAMi M煤sicaGounod - Faust - Caball茅 - Aragall - PlishkaGounod - Faust - Caball茅 - Aragall - Plishka - CD 32 Allons Siebel.wav

Peak level 74.9 %
Extraction speed 1.4 X
Track quality 100.0 %
Test CRC 44B38647
Copy CRC 44B38647
Track not present in AccurateRip database
Copy OK

Track 3

Filename E:MUSICAMi M煤sicaGounod - Faust - Caball茅 - Aragall - PlishkaGounod - Faust - Caball茅 - Aragall - Plishka - CD 33 Qu'attendez-vous encore.wav

Peak level 44.4 %
Extraction speed 1.7 X
Track quality 100.0 %
Test CRC 57A24F3F
Copy CRC 57A24F3F
Track not present in AccurateRip database
Copy OK

Track 4

Filename E:MUSICAMi M煤sicaGounod - Faust - Caball茅 - Aragall - PlishkaGounod - Faust - Caball茅 - Aragall - Plishka - CD 34 Vous qui faites l'endormie.wav

Peak level 53.4 %
Extraction speed 2.1 X
Track quality 100.0 %
Test CRC 618ABE25
Copy CRC 618ABE25
Track not present in AccurateRip database
Copy OK

Track 5

Filename E:MUSICAMi M煤sicaGounod - Faust - Caball茅 - Aragall - PlishkaGounod - Faust - Caball茅 - Aragall - Plishka - CD 35 Que voulez-vous messieurs.wav

Peak level 65.0 %
Extraction speed 2.4 X
Track quality 100.0 %
Test CRC A4310EA2
Copy CRC A4310EA2
Track not present in AccurateRip database
Copy OK

Track 6

Filename E:MUSICAMi M煤sicaGounod - Faust - Caball茅 - Aragall - PlishkaGounod - Faust - Caball茅 - Aragall - Plishka - CD 36 Par ici, par ici, mes amis !.wav

Peak level 88.7 %
Extraction speed 2.8 X
Track quality 100.0 %
Test CRC 0F1F1123
Copy CRC 0F1F1123
Track not present in AccurateRip database
Copy OK

Track 7

Filename E:MUSICAMi M煤sicaGounod - Faust - Caball茅 - Aragall - PlishkaGounod - Faust - Caball茅 - Aragall - Plishka - CD 37 Dans les Bruyeres.wav

Peak level 89.5 %
Extraction speed 2.7 X
Track quality 100.0 %
Test CRC BE0AAD26
Copy CRC BE0AAD26
Track not present in AccurateRip database
Copy OK

Track 8

Filename E:MUSICAMi M煤sicaGounod - Faust - Caball茅 - Aragall - PlishkaGounod - Faust - Caball茅 - Aragall - Plishka - CD 38 Jusqu'aux premiers feux du matin.wav

Peak level 74.8 %
Extraction speed 2.9 X
Track quality 100.0 %
Test CRC 4A298393
Copy CRC 4A298393
Track not present in AccurateRip database
Copy OK

Track 9

Filename E:MUSICAMi M煤sicaGounod - Faust - Caball茅 - Aragall - PlishkaGounod - Faust - Caball茅 - Aragall - Plishka - CD 39 Ballet.wav

Peak level 62.1 %
Extraction speed 3.4 X
Track quality 99.9 %
Test CRC 484CC27F
Copy CRC 484CC27F
Track not present in AccurateRip database
Copy OK

Track 10

Filename E:MUSICAMi M煤sicaGounod - Faust - Caball茅 - Aragall - PlishkaGounod - Faust - Caball茅 - Aragall - Plishka - CD 310 Que ton ivresse.wav

Peak level 80.9 %
Extraction speed 2.0 X
Track quality 99.9 %
Test CRC 274AAB9F
Copy CRC 274AAB9F
Track not present in AccurateRip database
Copy OK

Track 11

Filename E:MUSICAMi M煤sicaGounod - Faust - Caball茅 - Aragall - PlishkaGounod - Faust - Caball茅 - Aragall - Plishka - CD 311 Va-t'en.wav

Peak level 60.0 %
Extraction speed 3.7 X
Track quality 100.0 %
Test CRC B409C9B2
Copy CRC B409C9B2
Track not present in AccurateRip database
Copy OK

Track 12

Filename E:MUSICAMi M煤sicaGounod - Faust - Caball茅 - Aragall - PlishkaGounod - Faust - Caball茅 - Aragall - Plishka - CD 312 Mon coeur est penetre d'epouvante.wav

Peak level 69.1 %
Extraction speed 3.9 X
Track quality 100.0 %
Test CRC B4C495AC
Copy CRC B4C495AC
Track not present in AccurateRip database
Copy OK

Track 13

Filename E:MUSICAMi M煤sicaGounod - Faust - Caball茅 - Aragall - PlishkaGounod - Faust - Caball茅 - Aragall - Plishka - CD 313 Alerte !.wav

Peak level 74.6 %
Extraction speed 3.8 X
Track quality 100.0 %
Test CRC 230D07E0
Copy CRC 230D07E0
Track not present in AccurateRip database
Copy OK

Track 14

Filename E:MUSICAMi M煤sicaGounod - Faust - Caball茅 - Aragall - PlishkaGounod - Faust - Caball茅 - Aragall - Plishka - CD 314 Sauvee.wav

Peak level 64.3 %
Extraction speed 3.7 X
Track quality 100.0 %
Test CRC 3059262D
Copy CRC 3059262D
Track not present in AccurateRip database
Copy OK None of the tracks are present in the AccurateRip database

No errors occurred

End of status report

==== Log checksum 8C5AFBC4AD9736D07C9C13C9BA8BE1019D796BCAE2D2285DEED58C5BF021F194 ====





Alain Kremski | Chef S Table France Alain Passard | 1991 | Alain Resnais Smoking | Faust Love Of The Damned | Alain De Botto | Faust So Far | Alain Chamfort Alain Chamfort | Alain Clark Alain Clark | Alain Bashung Bleu Ptrole 320Kbps
Gounod - Faust ( Alain Lombard ) CD 1991 Re-Up Torrent Download with keygen, crack, serial, dvdrip, hdrip, HD, 720p, 1024p, 2016, 2015