Badi Devrani | Killer Karaoke | Tujhse Naaraz Nahi Zindagi

Neville Marriner & Academy of St. Martin-in-the-Fields - Fantasia on Greensleeves (1997) 2CD

New Download Links
Speed
 kbps
 kbps
 kbps

Neville Marriner & Academy of St. Martin-in-the-Fields - Fantasia on 'Greensleeves' (1997) 2CD
Ralph Vaughan Williams - Peter Warlock - George Butterworth - Frederick Delius - Edward Elgar

EAC | FLAC | Tracks (Cue&Log) ~ 672 Mb (incl 5%) | Mp3 (CBR320) ~ 376 Mb (incl 5%) | Scans included
Genre: Classical | Label: Decca | # 452 707-2 | Time: 02:29:40

There are many anthologies of late nineteenth and early twentieth century English music available but this collection from Decca is one of the finest. Neville Marriner directs the Academy of St Martins-in-the-Fields in a programme of popular favourites and lesser known works collected from a number of LP's recorded between 1968 and 1981. The late analogue Decca sound is superb and the orchestra and conductor are totally in tune with the music.

The first disc contains works by Vaughan Williams which include a lovely 'Lark Ascending' in which the soloist is the late lamented Iona Brown. This must be one of the finest performances of this popular work ever recorded. The Peter Warlock items include a splendid version of the 'Capriol Suite' and the three mature orchestral works by George Butterworth are beautifully phrased and paced. One of the most talented composers of his generation, his tragic early death on the Somme in 1916 was an enormous loss to English music. Marriner's performances remain the very finest this elusive music have received on record.

The second disc includes some excellent performances of five of Delius's most popular and memorable shorter works. Though, arguably, not as fine as those by Beecham and Barbirolli, they are extremely enjoyable. The Elgar compositions which complete the programme include near perfect versions of the 'Serenade' and 'Introduction and Allegro'; fine interpretations of 'Sospiri' and the 'Elegy' and - a rarity this - Percy Young's arrangement of orchestral extracts from 'The Spanish Lady' - the opera Elgar was working on at the time of his death.

A near faultless anthology of shorter works from the English musical renaissance, these discs can be recommended without reservation.

Review by J. Gibbons, Amazon.co.uk


There are very few CD's that I find as enjoyable and refreshing as this one. All of the pieces on this album are well worth listening to; some of them are pieces with no equal in the entire field of music. This is especially true of the Vaughan Williams that opens this disc. The disc opens with the Greensleeves Fantasia, a stunning arrangement of the ever-popular song that makes it even more elusive and melancholy. Then there is the nearly immortalized "The Lark Ascending", by far my favorite piece on the disc. (Actually, it is second only to the Elgar Cello Concerto (Elgar, Walton: Cello Concertos) as my favorite piece in all music.) You feel yourself being lifted up with the lark while the entire world around you is exploding in beauty and song. Iona Brown's violin solo is tender and affectionate, not to mention Marriner and ASMF's orchestral accompaniment. The English Folksongs Suite is full of fun and humor; Marriner does a fabulous job bringing these qualities out. Written for military band, this suite remains one of Vaughan Williams most popular works.

Following the Vaughan Williams is the music of two less familiar composers - Peter Warlock and George Butterworth. Warlock's Capriol Suite is a bit of a cross between the old and the new. The suite is written with a somewhat "Old English" air; a harpsichord is included. After the soothing Pied-en-lair, the suite concludes with a roar of laughter with the "Sword Dance". Butterworth's "A Shropshire Lad" is dark and gloomy - admittedly one of the least successful songs on the disc. The following "Two English Idylls" are far more satisfying with a sunny atmosphere that is strongly suggestive of the beginning of spring. More successful still is "The Banks of Green Willow." Here the music is strongly nostalgic and lyrical. The climax near the middle is, quite simply, enough to lift you off your feet. After hearing this piece for the first time on this disc several months ago, I will certainly never forget it. Here Marriner and ASMF give us a superb performance that makes the piece all the more unforgettable.

The second disc begins with the music of Frederick Delius, a composer who was strongly impressionistic. In many ways he could be called "the English Debussy" as his music contains many of the elements that Debussy's contains, only it is strongly English, not French. "The Walk to the Paradise Garden" is aptly named, with its gently moving texture. This is probably Delius' most successful composition, one of them anyway. "The Intermezzo and Serenade from Hassan" continues in a relaxing, poetic vein. The following two pieces, "On hearing the first Cuckoo in Spring" and "Summer Night on the River" are both soothing impressionistic paintings that are quite thought provoking. "La Calinda" is livelier while still having Delius' ever-present dreaminess. In many ways, I feel that this is Delius' most successful piece. A real plus in the Delius is Marriner's conducting which wonderfully captures the poetic dreaminess without lapsing into sentimentality.

The disc concludes with the music of Sir Edward Elgar. The Serenade for Strings is one of Elgar's very first compositions. It contains much beautiful string writing. There is a sense of retrospection in this work as if though Elgar was thinking back over his childhood. The following Elegy and Sospiri are both meditative and relaxing, with Elgar's ever-present dark quality - a quality that is sober and introspective without becoming gloomy. The Suite from the Spanish Lady is comparatively sunny and bright. It was taken from sketches originally intended for an opera. The Introduction and Allegro for strings begins with a deep, thoughtful introduction that is followed by a much livelier passage that contains much gorgeous interplay between the strings. It is without question one of Elgar's most successful and popular compositions.

In closing, I strongly encourage anyone interested in having a soothing, relaxing album to buy this CD. Marriner and ASMF give performances that are top-notch, especially in the Vaughan Williams and Delius.

Review by Andrew R. Barnard, Amazon.com





Tracklist:

CD1:

01. Vaughan Williams. Fantasia on «Greensleeves» (04:33)
02. Vaughan Williams. «The lark ascending» (16:07)
03. Vaughan Williams. English folk song suite: I. March: «Seventeen come sunday» (03:20)
04. Vaughan Williams. English folk song suite: II. Intermezzo: «My bonny boy» (03:18)
05. Vaughan Williams. English folk song suite: III. March: Folk songs from Somerset (03:54)

06. Warlock. Serenade for strings (07:47)
07. Warlock. «Capriol», suite: I. Basse-danse (01:36)
08. Warlock. «Capriol», suite: II. Pavane (02:10)
09. Warlock. «Capriol», suite: III. Tordion (01:06)
10. Warlock. «Capriol», suite: IV. Bransles (01:59)
11. Warlock. «Capriol», suite: V. Pieds-en-l'air (02:24)
12. Warlock. «Capriol», suite: VI. Mattachins (Sword dance) (01:04)

13. Butterworth. «A Shropshire Lad» (10:23)
14. Butterworth. «Two English Idylls» (09:49)
15. Butterworth. «The banks of Green Willow» (06:06) CD2:

01. Delius. «The walk to the Paradise Garden» from «A village Romeo and Juliet» (08:47)
02. Delius. Intermezzo and Serenade from «Hassan» (03:57)
03. Delius. «A song before sunrise» (04:44)
04. Delius. «On hearing the first cuckoo in spring» (05:47)
05. Delius. «Summer night on the river» (05:18)
06. Delius. «La Calinda» from «Koanga» (04:07)

07. Elgar. Serenade in E minor for strings, Op. 20: I. Allegro piacevole (03:20)
08. Elgar. Serenade in E minor for strings, Op. 20: II. Larghetto (06:06)
09. Elgar. Serenade in E minor for strings, Op. 20: III. Allegretto (02:39)
10. Elgar. «Sospiri» for strings, harp and organ, Op. 70 (04:54)
11. Elgar. Elegy for strings, Op. 58 (04:29)
12. Elgar. «The spanish lady», suite (06:01)
13. Elgar. Introduction and Allegro for string orchestra and quartet, Op. 47 (13:48)


EAC log CD1
Exact Audio Copy V1.0 beta 3 from 29. August 2011

EAC extraction logfile from 24. November 2012, 1:27

Academy of St Martin-in-the-Fields & Neville Marriner / Fantasia on Greensleeves (Disc 1)

Used drive : TSSTcorpCDDVDW SN-208AB Adapter: 0 ID: 0

Read mode : Secure
Utilize accurate stream : Yes
Defeat audio cache : Yes
Make use of C2 pointers : No

Read offset correction : 6
Overread into Lead-In and Lead-Out : No
Fill up missing offset samples with silence : Yes
Delete leading and trailing silent blocks : No
Null samples used in CRC calculations : Yes
Used interface : Native Win32 interface for Win NT & 2000
Gap handling : Appended to previous track

Used output format : User Defined Encoder
Selected bitrate : 896 kBit/s
Quality : High
Add ID3 tag : No
Command line compressor : C:Program Files (x86)Exact Audio CopyFlacflac.exe
Additional command line options : -8 -V -T "ARTIST=%artist%" -T "TITLE=%title%" -T "ALBUM=%albumtitle%" -T "DATE=%year%" -T "TRACKNUMBER=%tracknr%" -T "GENRE=%genre%" -T "PERFORMER=%albuminterpret%" -T "COMPOSER=%composer%" %haslyrics%--tag-from-file=LYRICS="%lyricsfile%"%haslyrics% -T "ALBUMARTIST=%albumartist%" -T "DISCNUMBER=%cdnumber%" -T "TOTALDISCS=%totalcds%" -T "TOTALTRACKS=%numtracks%" -T "COMMENT=%comment%" %source% -o %dest% TOC of the extracted CD

Track | Start | Length | Start sector | End sector
---------------------------------------------------------
1 | 0:00.33 | 4:33.00 | 33 | 20507
2 | 4:33.33 | 16:07.10 | 20508 | 93042
3 | 20:40.43 | 3:20.57 | 93043 | 108099
4 | 24:01.25 | 3:18.63 | 108100 | 123012
5 | 27:20.13 | 3:54.20 | 123013 | 140582
6 | 31:14.33 | 7:47.10 | 140583 | 175617
7 | 39:01.43 | 1:36.20 | 175618 | 182837
8 | 40:37.63 | 2:10.20 | 182838 | 192607
9 | 42:48.08 | 1:06.65 | 192608 | 197622
10 | 43:54.73 | 1:59.52 | 197623 | 206599
11 | 45:54.50 | 2:24.20 | 206600 | 217419
12 | 48:18.70 | 1:04.25 | 217420 | 222244
13 | 49:23.20 | 10:23.13 | 222245 | 268982
14 | 59:46.33 | 9:49.00 | 268983 | 313157
15 | 69:35.33 | 6:06.00 | 313158 | 340607 Track 1

Filename D:EAC - FlacNeville Marriner - Vaughan Williams: Fantasia On Greensleeves, Etc (1997)[Flac][2CD]Disc 11 - Ralph Vaughan Williams Fantasia on Greensleeves.wav

Pre-gap length 0:00:02.33

Peak level 21.6 %
Extraction speed 1.2 X
Track quality 100.0 %
Test CRC F0EE94A3
Copy CRC F0EE94A3
Track not present in AccurateRip database
Copy OK

Track 2

Filename D:EAC - FlacNeville Marriner - Vaughan Williams: Fantasia On Greensleeves, Etc (1997)[Flac][2CD]Disc 12 - Ralph Vaughan Williams The Lark Ascending.wav

Pre-gap length 0:00:05.00

Peak level 66.1 %
Extraction speed 1.6 X
Track quality 99.9 %
Test CRC 77308B32
Copy CRC 77308B32
Track not present in AccurateRip database
Copy OK

Track 3

Filename D:EAC - FlacNeville Marriner - Vaughan Williams: Fantasia On Greensleeves, Etc (1997)[Flac][2CD]Disc 13 - Ralph Vaughan Williams - English Folk Song Suite - I. March - Seventeen come Sunday.wav

Pre-gap length 0:00:05.00

Peak level 87.6 %
Extraction speed 1.6 X
Track quality 100.0 %
Test CRC F089476A
Copy CRC F089476A
Track not present in AccurateRip database
Copy OK

Track 4

Filename D:EAC - FlacNeville Marriner - Vaughan Williams: Fantasia On Greensleeves, Etc (1997)[Flac][2CD]Disc 14 - Ralph Vaughan Williams - English Folk Song Suite - II. Intermezzo - My Bonny Boy.wav

Peak level 47.0 %
Extraction speed 1.5 X
Track quality 99.9 %
Test CRC 70D7B807
Copy CRC 70D7B807
Track not present in AccurateRip database
Copy OK

Track 5

Filename D:EAC - FlacNeville Marriner - Vaughan Williams: Fantasia On Greensleeves, Etc (1997)[Flac][2CD]Disc 15 - Ralph Vaughan Williams - English Folk Song Suite - III. March - Folk Songs from Somerset.wav

Peak level 99.8 %
Extraction speed 1.8 X
Track quality 100.0 %
Test CRC 2474DFBC
Copy CRC 2474DFBC
Track not present in AccurateRip database
Copy OK

Track 6

Filename D:EAC - FlacNeville Marriner - Vaughan Williams: Fantasia On Greensleeves, Etc (1997)[Flac][2CD]Disc 16 - Peter Warlock - Serenade for Strings.wav

Pre-gap length 0:00:05.00

Peak level 69.5 %
Extraction speed 1.9 X
Track quality 99.9 %
Test CRC D100746C
Copy CRC D100746C
Track not present in AccurateRip database
Copy OK

Track 7

Filename D:EAC - FlacNeville Marriner - Vaughan Williams: Fantasia On Greensleeves, Etc (1997)[Flac][2CD]Disc 17 - Peter Warlock - Capriol Suite - I. Basse-Danse.wav

Pre-gap length 0:00:05.00

Peak level 59.3 %
Extraction speed 1.3 X
Track quality 99.8 %
Test CRC 3D9706D7
Copy CRC 3D9706D7
Track not present in AccurateRip database
Copy OK

Track 8

Filename D:EAC - FlacNeville Marriner - Vaughan Williams: Fantasia On Greensleeves, Etc (1997)[Flac][2CD]Disc 18 - Peter Warlock - Capriol Suite - II. Pavane.wav

Peak level 33.8 %
Extraction speed 1.8 X
Track quality 100.0 %
Test CRC 9C1BCAA9
Copy CRC 9C1BCAA9
Track not present in AccurateRip database
Copy OK

Track 9

Filename D:EAC - FlacNeville Marriner - Vaughan Williams: Fantasia On Greensleeves, Etc (1997)[Flac][2CD]Disc 19 - Peter Warlock - Capriol Suite - III. Tordion.wav

Peak level 13.4 %
Extraction speed 1.5 X
Track quality 100.0 %
Test CRC 56E65A3E
Copy CRC 56E65A3E
Track not present in AccurateRip database
Copy OK

Track 10

Filename D:EAC - FlacNeville Marriner - Vaughan Williams: Fantasia On Greensleeves, Etc (1997)[Flac][2CD]Disc 110 - Peter Warlock - Capriol Suite - IV. Bransles.wav

Peak level 65.0 %
Extraction speed 1.8 X
Track quality 100.0 %
Test CRC B911A2D6
Copy CRC B911A2D6
Track not present in AccurateRip database
Copy OK

Track 11

Filename D:EAC - FlacNeville Marriner - Vaughan Williams: Fantasia On Greensleeves, Etc (1997)[Flac][2CD]Disc 111 - Peter Warlock - Capriol Suite - V. Pieds-en-l'air.wav

Peak level 26.2 %
Extraction speed 2.0 X
Track quality 100.0 %
Test CRC 6CEAE13F
Copy CRC 6CEAE13F
Track not present in AccurateRip database
Copy OK

Track 12

Filename D:EAC - FlacNeville Marriner - Vaughan Williams: Fantasia On Greensleeves, Etc (1997)[Flac][2CD]Disc 112 - Peter Warlock - Capriol Suite - VI. Mattachins (Sword Dance).wav

Peak level 87.2 %
Extraction speed 1.5 X
Track quality 100.0 %
Test CRC 3B9DFB9F
Copy CRC 3B9DFB9F
Track not present in AccurateRip database
Copy OK

Track 13

Filename D:EAC - FlacNeville Marriner - Vaughan Williams: Fantasia On Greensleeves, Etc (1997)[Flac][2CD]Disc 113 - George Butterworth - A Shropshire Lad.wav

Pre-gap length 0:00:05.00

Peak level 99.2 %
Extraction speed 2.3 X
Track quality 99.9 %
Test CRC 06C9FFAC
Copy CRC 06C9FFAC
Track not present in AccurateRip database
Copy OK

Track 14

Filename D:EAC - FlacNeville Marriner - Vaughan Williams: Fantasia On Greensleeves, Etc (1997)[Flac][2CD]Disc 114 - George Butterworth - Two English Idylls.wav

Pre-gap length 0:00:05.00

Peak level 100.0 %
Extraction speed 2.6 X
Track quality 100.0 %
Test CRC BD1C6C22
Copy CRC BD1C6C22
Track not present in AccurateRip database
Copy OK

Track 15

Filename D:EAC - FlacNeville Marriner - Vaughan Williams: Fantasia On Greensleeves, Etc (1997)[Flac][2CD]Disc 115 - George Butterworth - The Banks of Green Willow.wav

Pre-gap length 0:00:05.00

Peak level 100.0 %
Extraction speed 2.6 X
Track quality 100.0 %
Test CRC D6C9A947
Copy CRC D6C9A947
Track not present in AccurateRip database
Copy OK None of the tracks are present in the AccurateRip database

No errors occurred

End of status report

==== Log checksum 1ACE25EB0AF3358D63E5657CA094B42C2C585FDC4BB8B57E89E7578F8499B079 ====

DR log CD1
foobar2000 1.3.8 / Dynamic Range Meter 1.1.1
log date: 2015-05-20 23:05:23

--------------------------------------------------------------------------------
Analyzed: Academy of St. Martin in the Fields. Neville Marriner, conductor / Fantasia on «Greensleeves» (1-8)
Iona Brown (violin), Academy of St. Martin in the Fields. Neville Marriner, conductor / Fantasia on «Greensleeves» (9)
Nicholas Kraemer (harpsichord), Academy of St. Martin in the Fields. Neville Marriner, conductor / Fantasia on «Greensleeves» (10-15)
--------------------------------------------------------------------------------

DR Peak RMS Duration Track
--------------------------------------------------------------------------------
DR14 -13.29 dB -32.03 dB 4:33 01-Vaughan Williams. Fantasia on «Greensleeves»
DR14 -1.15 dB -19.41 dB 3:21 03-Vaughan Williams. English folk song suite: I. March: «Seventeen come sunday»
DR12 -6.56 dB -27.55 dB 3:19 04-Vaughan Williams. English folk song suite: II. Intermezzo: «My bonny boy»
DR13 -0.01 dB -17.62 dB 3:54 05-Vaughan Williams. English folk song suite: III. March: Folk songs from Somerset
DR13 -3.16 dB -23.44 dB 7:47 06-Warlock. Serenade for strings
DR13 -0.07 dB -20.06 dB 10:23 13-Butterworth. «A Shropshire Lad»
DR14 0.00 dB -20.88 dB 9:49 14-Butterworth. «Two English Idylls»
DR13 0.00 dB -20.85 dB 6:06 15-Butterworth. «The banks of Green Willow»
DR14 -3.59 dB -25.53 dB 16:07 02-Vaughan Williams. «The lark ascending»
DR12 -4.53 dB -21.13 dB 1:36 07-Warlock. «Capriol», suite: I. Basse-danse
DR12 -9.42 dB -28.25 dB 2:10 08-Warlock. «Capriol», suite: II. Pavane
DR12 -17.41 dB -35.34 dB 1:07 09-Warlock. «Capriol», suite: III. Tordion
DR12 -3.74 dB -22.17 dB 2:00 10-Warlock. «Capriol», suite: IV. Bransles
DR11 -11.62 dB -27.86 dB 2:24 11-Warlock. «Capriol», suite: V. Pieds-en-l'air
DR13 -1.19 dB -19.65 dB 1:04 12-Warlock. «Capriol», suite: VI. Mattachins (Sword dance)
--------------------------------------------------------------------------------

Number of tracks: 15
Official DR value: DR13

Samplerate: 44100 Hz
Channels: 2
Bits per sample: 16
Bitrate: 645 kbps
Codec: FLAC
================================================================================


EAC log CD2
Exact Audio Copy V1.0 beta 3 from 29. August 2011

EAC extraction logfile from 23. November 2012, 23:45

Academy of St Martin-in-the-Fields & Neville Marriner / Fantasia on Greensleeves (Disc 2)

Used drive : TSSTcorpCDDVDW SN-208AB Adapter: 0 ID: 0

Read mode : Secure
Utilize accurate stream : Yes
Defeat audio cache : Yes
Make use of C2 pointers : No

Read offset correction : 6
Overread into Lead-In and Lead-Out : No
Fill up missing offset samples with silence : Yes
Delete leading and trailing silent blocks : No
Null samples used in CRC calculations : Yes
Used interface : Native Win32 interface for Win NT & 2000
Gap handling : Appended to previous track

Used output format : User Defined Encoder
Selected bitrate : 896 kBit/s
Quality : High
Add ID3 tag : No
Command line compressor : C:Program Files (x86)Exact Audio CopyFlacflac.exe
Additional command line options : -8 -V -T "ARTIST=%artist%" -T "TITLE=%title%" -T "ALBUM=%albumtitle%" -T "DATE=%year%" -T "TRACKNUMBER=%tracknr%" -T "GENRE=%genre%" -T "PERFORMER=%albuminterpret%" -T "COMPOSER=%composer%" %haslyrics%--tag-from-file=LYRICS="%lyricsfile%"%haslyrics% -T "ALBUMARTIST=%albumartist%" -T "DISCNUMBER=%cdnumber%" -T "TOTALDISCS=%totalcds%" -T "TOTALTRACKS=%numtracks%" -T "COMMENT=%comment%" %source% -o %dest% TOC of the extracted CD

Track | Start | Length | Start sector | End sector
---------------------------------------------------------
1 | 0:00.32 | 8:47.55 | 32 | 39611
2 | 8:48.12 | 3:57.20 | 39612 | 57406
3 | 12:45.32 | 4:44.00 | 57407 | 78706
4 | 17:29.32 | 5:47.00 | 78707 | 104731
5 | 23:16.32 | 5:18.00 | 104732 | 128581
6 | 28:34.32 | 4:07.00 | 128582 | 147106
7 | 32:41.32 | 3:20.63 | 147107 | 162169
8 | 36:02.20 | 6:06.12 | 162170 | 189631
9 | 42:08.32 | 2:39.00 | 189632 | 201556
10 | 44:47.32 | 4:54.00 | 201557 | 223606
11 | 49:41.32 | 4:29.00 | 223607 | 243781
12 | 54:10.32 | 6:01.10 | 243782 | 270866
13 | 60:11.42 | 13:48.65 | 270867 | 333031 Track 1

Filename D:EAC - FlacNeville Marriner - Vaughan Williams: Fantasia On Greensleeves, Etc (1997)[Flac][2CD]Disc 21 - Frederick Delius¡EThe Walk to the Paradise Garden.wav

Pre-gap length 0:00:02.32

Peak level 90.6 %
Extraction speed 2.9 X
Track quality 100.0 %
Test CRC 5A5F1633
Copy CRC 5A5F1633
Cannot be verified as accurate (confidence 4) [49A831C5], AccurateRip returned [6CCA2618] (AR v2)
Copy OK

Track 2

Filename D:EAC - FlacNeville Marriner - Vaughan Williams: Fantasia On Greensleeves, Etc (1997)[Flac][2CD]Disc 22 - Frederick Delius¡EIntermezzo and Serenade from ''Hassan''.wav

Pre-gap length 0:00:05.00

Peak level 22.6 %
Extraction speed 3.0 X
Track quality 100.0 %
Test CRC D9DA9A84
Copy CRC D9DA9A84
Cannot be verified as accurate (confidence 4) [C888E299], AccurateRip returned [9C6374EA] (AR v2)
Copy OK

Track 3

Filename D:EAC - FlacNeville Marriner - Vaughan Williams: Fantasia On Greensleeves, Etc (1997)[Flac][2CD]Disc 23 - Frederick Delius¡EA Song before Sunrise.wav

Pre-gap length 0:00:05.00

Peak level 63.2 %
Extraction speed 3.3 X
Track quality 100.0 %
Test CRC 0D20C291
Copy CRC 0D20C291
Cannot be verified as accurate (confidence 4) [23B98AFB], AccurateRip returned [ED4EC2E1] (AR v2)
Copy OK

Track 4

Filename D:EAC - FlacNeville Marriner - Vaughan Williams: Fantasia On Greensleeves, Etc (1997)[Flac][2CD]Disc 24 - Frederick Delius¡EOn Hearing the First Cuckoo in Spring.wav

Pre-gap length 0:00:05.00

Peak level 36.8 %
Extraction speed 3.6 X
Track quality 100.0 %
Test CRC 9CF1DF37
Copy CRC 9CF1DF37
Cannot be verified as accurate (confidence 4) [22AD628A], AccurateRip returned [2C74C32B] (AR v2)
Copy OK

Track 5

Filename D:EAC - FlacNeville Marriner - Vaughan Williams: Fantasia On Greensleeves, Etc (1997)[Flac][2CD]Disc 25 - Frederick Delius¡ESummer Night on the River.wav

Pre-gap length 0:00:05.00

Peak level 45.7 %
Extraction speed 3.8 X
Track quality 100.0 %
Test CRC 468AF4CD
Copy CRC 468AF4CD
Cannot be verified as accurate (confidence 4) [F93D34A3], AccurateRip returned [D6C50DF0] (AR v2)
Copy OK

Track 6

Filename D:EAC - FlacNeville Marriner - Vaughan Williams: Fantasia On Greensleeves, Etc (1997)[Flac][2CD]Disc 26 - Frederick Delius¡ELa Calinda.wav

Pre-gap length 0:00:05.00

Peak level 84.7 %
Extraction speed 2.9 X
Track quality 99.9 %
Test CRC E89CC533
Copy CRC E89CC533
Cannot be verified as accurate (confidence 4) [ABDFF948], AccurateRip returned [3D140C2D] (AR v2)
Copy OK

Track 7

Filename D:EAC - FlacNeville Marriner - Vaughan Williams: Fantasia On Greensleeves, Etc (1997)[Flac][2CD]Disc 27 - Edward Elgar¡ESerenade in E minor for Strings, Op.20 - I. Allegro piacevole.wav

Pre-gap length 0:00:05.00

Peak level 67.5 %
Extraction speed 2.7 X
Track quality 99.9 %
Test CRC 7C9908B7
Copy CRC 7C9908B7
Cannot be verified as accurate (confidence 4) [70C63702], AccurateRip returned [8C7A82D9] (AR v2)
Copy OK

Track 8

Filename D:EAC - FlacNeville Marriner - Vaughan Williams: Fantasia On Greensleeves, Etc (1997)[Flac][2CD]Disc 28 - Edward Elgar¡ESerenade in E minor for Strings, Op.20 - II. Larghetto.wav

Pre-gap length 0:00:02.00

Peak level 59.8 %
Extraction speed 3.5 X
Track quality 99.9 %
Test CRC 0B6A1329
Copy CRC 0B6A1329
Cannot be verified as accurate (confidence 4) [08F76950], AccurateRip returned [39CF12ED] (AR v2)
Copy OK

Track 9

Filename D:EAC - FlacNeville Marriner - Vaughan Williams: Fantasia On Greensleeves, Etc (1997)[Flac][2CD]Disc 29 - Edward Elgar¡ESerenade in E minor for Strings, Op.20 - III. Allegretto.wav

Pre-gap length 0:00:04.00

Peak level 59.1 %
Extraction speed 2.6 X
Track quality 99.9 %
Test CRC 8345BF68
Copy CRC 8345BF68
Cannot be verified as accurate (confidence 4) [6D7A6A77], AccurateRip returned [71CFA8DD] (AR v2)
Copy OK

Track 10

Filename D:EAC - FlacNeville Marriner - Vaughan Williams: Fantasia On Greensleeves, Etc (1997)[Flac][2CD]Disc 210 - Edward Elgar¡ESospiri for Strings, Harp and Organ, Op.70.wav

Pre-gap length 0:00:05.00

Peak level 63.2 %
Extraction speed 4.5 X
Track quality 100.0 %
Test CRC A3CE8717
Copy CRC A3CE8717
Cannot be verified as accurate (confidence 4) [5B0D52BE], AccurateRip returned [8B0003DC] (AR v2)
Copy OK

Track 11

Filename D:EAC - FlacNeville Marriner - Vaughan Williams: Fantasia On Greensleeves, Etc (1997)[Flac][2CD]Disc 211 - Edward Elgar¡EElegy for Strings, Op.58.wav

Pre-gap length 0:00:05.00

Peak level 63.6 %
Extraction speed 4.6 X
Track quality 100.0 %
Test CRC 292CB5A9
Copy CRC 292CB5A9
Cannot be verified as accurate (confidence 4) [57823C0A], AccurateRip returned [21A6B977] (AR v2)
Copy OK

Track 12

Filename D:EAC - FlacNeville Marriner - Vaughan Williams: Fantasia On Greensleeves, Etc (1997)[Flac][2CD]Disc 212 - Edward Elgar¡EThe Spanish Lady - Suite.wav

Pre-gap length 0:00:05.00

Peak level 84.3 %
Extraction speed 5.0 X
Track quality 100.0 %
Test CRC BD497D00
Copy CRC BD497D00
Cannot be verified as accurate (confidence 4) [08386782], AccurateRip returned [D62E7319] (AR v2)
Copy OK

Track 13

Filename D:EAC - FlacNeville Marriner - Vaughan Williams: Fantasia On Greensleeves, Etc (1997)[Flac][2CD]Disc 213 - Edward Elgar¡EIntroduciton and Allegro for String Orchestra and Quartet, Op.47.wav

Pre-gap length 0:00:05.00

Peak level 90.7 %
Extraction speed 5.6 X
Track quality 100.0 %
Test CRC 67049171
Copy CRC 67049171
Cannot be verified as accurate (confidence 4) [478D424B], AccurateRip returned [C0C07176] (AR v2)
Copy OK No tracks could be verified as accurate
You may have a different pressing from the one(s) in the database

No errors occurred

End of status report

==== Log checksum 7ED37A459D1857DE391EC511FE2AB404C1C434199E20EB5B5760B96C25848190 ====

DR log CD2
foobar2000 1.3.8 / Dynamic Range Meter 1.1.1
log date: 2015-05-20 23:07:10

--------------------------------------------------------------------------------
Analyzed: Academy of St. Martin in the Fields. Neville Marriner, conductor / Fantasia on «Greensleeves» (1-12)
Hugh Maguire, Raymond Keenlyside, Kenneth Essex, Kenneth Heath, Academy of St. Martin in the Fields. Neville Marriner, conductor / Fantasia on «Greensleeves» (13)
--------------------------------------------------------------------------------

DR Peak RMS Duration Track
--------------------------------------------------------------------------------
DR12 -0.85 dB -20.65 dB 8:48 01-Delius. «The walk to the Paradise Garden» from «A village Romeo and Juliet»
DR12 -12.90 dB -32.39 dB 3:57 02-Delius. Intermezzo and Serenade from «Hassan»
DR12 -3.98 dB -23.92 dB 4:44 03-Delius. «A song before sunrise»
DR13 -8.68 dB -27.43 dB 5:47 04-Delius. «On hearing the first cuckoo in spring»
DR14 -6.79 dB -27.10 dB 5:18 05-Delius. «Summer night on the river»
DR11 -1.44 dB -18.18 dB 4:07 06-Delius. «La Calinda» from «Koanga»
DR12 -3.41 dB -20.69 dB 3:21 07-Elgar. Serenade in E minor for strings, Op. 20: I. Allegro piacevole
DR13 -4.46 dB -23.98 dB 6:06 08-Elgar. Serenade in E minor for strings, Op. 20: II. Larghetto
DR13 -4.55 dB -22.51 dB 2:39 09-Elgar. Serenade in E minor for strings, Op. 20: III. Allegretto
DR13 -3.98 dB -23.47 dB 4:54 10-Elgar. «Sospiri» for strings, harp and organ, Op. 70
DR13 -3.92 dB -23.31 dB 4:29 11-Elgar. Elegy for strings, Op. 58
DR13 -1.48 dB -19.38 dB 6:01 12-Elgar. «The spanish lady», suite
DR13 -0.85 dB -18.16 dB 13:49 13-Elgar. Introduction and Allegro for string orchestra and quartet, Op. 47
--------------------------------------------------------------------------------

Number of tracks: 13
Official DR value: DR13

Samplerate: 44100 Hz
Channels: 2
Bits per sample: 16
Bitrate: 683 kbps
Codec: FLAC
================================================================================



All thanks to original releaser - Rhythm1c





Fantasia | Fantasia 99 | Fantasia Continued | Me Odigo Tin Fantasia | Fantasia 2000 | Neville Goddard | Neville | Belanova Fantasia Pop Is Safe 1 | Academy Of St Martin | Arc Rise Fantasia
Neville Marriner & Academy of St. Martin-in-the-Fields - Fantasia on Greensleeves (1997) 2CD Torrent Download with keygen, crack, serial, dvdrip, hdrip, HD, 720p, 1024p, 2016, 2015