ThunderCats (2011) | Abbie Cornish | Madre CAMRIP

James Last - In der St. Patricks Cathedral (1984 Polydor # 823 669-2 Y)

New Download Links
Speed
 kbps
 kbps
 kbps

James Last - In der St. Patricks Cathedral
EAC+LOG+CUE | FLAC: 245 MB | Full Artwork: 35 MB | 5% Recovery Info
Label/Cat#: Polydor # 823 669-2 Y | Country/Year: Germany 1984
Genre: Pop, Classical, Folk | Style: Easy Listening, Instrumental, Irish Folk

MD5 [X] CUE [X] LOG [X] INFO TEXT [X] ARTWORK [X]

my rip [X] not my rip [ ]



EAC LOG
Exact Audio Copy V1.0 beta 3 from 29. August 2011

EAC extraction logfile from 20. September 2013, 17:31

James Last / In der St. Patrick's Cathedral

Used drive : PLEXTOR CD-R PX-W1210A Adapter: 1 ID: 0

Read mode : Secure
Utilize accurate stream : Yes
Defeat audio cache : Yes
Make use of C2 pointers : No

Read offset correction : 99
Overread into Lead-In and Lead-Out : No
Fill up missing offset samples with silence : Yes
Delete leading and trailing silent blocks : No
Null samples used in CRC calculations : Yes
Used interface : Native Win32 interface for Win NT & 2000

Used output format : User Defined Encoder
Selected bitrate : 1024 kBit/s
Quality : High
Add ID3 tag : Yes
Command line compressor : C:Program FilesFLACflac.exe
Additional command line options : -5 -T "Artist=%artist%" -T "Title=%title%" -T "Album=%albumtitle%" -T "Date=%year%" -T "Tracknumber=%tracknr%" -T "Genre=%genre%" %source% -o %dest% TOC of the extracted CD

Track | Start | Length | Start sector | End sector
---------------------------------------------------------
1 | 0:00.33 | 3:43.20 | 33 | 16777
2 | 3:43.53 | 6:04.02 | 16778 | 44079
3 | 9:47.55 | 4:59.35 | 44080 | 66539
4 | 14:47.15 | 2:21.43 | 66540 | 77157
5 | 17:08.58 | 4:38.20 | 77158 | 98027
6 | 21:47.03 | 3:07.12 | 98028 | 112064
7 | 24:54.15 | 3:50.28 | 112065 | 129342
8 | 28:44.43 | 4:48.60 | 129343 | 151002
9 | 33:33.28 | 4:29.10 | 151003 | 171187
10 | 38:02.38 | 3:20.55 | 171188 | 186242
11 | 41:23.18 | 3:33.17 | 186243 | 202234
12 | 44:56.35 | 3:16.33 | 202235 | 216967
13 | 48:12.68 | 2:35.65 | 216968 | 228657 Range status and errors

Selected range

Filename F:=== VINYL RIPS ====== EAC===X FRESH RIPJames Last - In der St. Patrick's Cathedral.wav

Peak level 83.3 %
Extraction speed 3.5 X
Range quality 99.9 %
Test CRC A66092A5
Copy CRC A66092A5
Copy OK

No errors occurred


AccurateRip summary

Track 1 accurately ripped (confidence 2) [97430E01] (AR v2)
Track 2 accurately ripped (confidence 2) [B15ECB81] (AR v2)
Track 3 accurately ripped (confidence 2) [27E169B9] (AR v2)
Track 4 accurately ripped (confidence 2) [308427C3] (AR v2)
Track 5 accurately ripped (confidence 2) [3F7D243F] (AR v2)
Track 6 accurately ripped (confidence 2) [05A4BE71] (AR v2)
Track 7 accurately ripped (confidence 2) [300293CF] (AR v2)
Track 8 accurately ripped (confidence 2) [FFEA95B0] (AR v2)
Track 9 accurately ripped (confidence 2) [8646A30A] (AR v2)
Track 10 accurately ripped (confidence 2) [5DF4E94D] (AR v2)
Track 11 accurately ripped (confidence 2) [6F306CD7] (AR v2)
Track 12 accurately ripped (confidence 2) [56C42798] (AR v2)
Track 13 accurately ripped (confidence 2) [85F134B1] (AR v2)

All tracks accurately ripped

End of status report

---- CUETools DB Plugin V2.1.3

[CTDB TOCID: BxpVRayj6M_.oLBFpgOuKPl4eG8-] disk not present in database, Submit result: discs with pregaps not supported in this protocol version ==== Log checksum F7AD4FB559FA699AF89717C3CE999CDFBFD1D459C6B2DC35247DE4073E4CD28B ====

Dynamic Range LOG
foobar2000 1.1.14a / Dynamic Range Meter 1.1.1
log date: 2013-09-21 15:42:43

--------------------------------------------------------------------------------
Analyzed: James Last / In der St. Patrick's Cathedral
--------------------------------------------------------------------------------

DR Peak RMS Duration Track
--------------------------------------------------------------------------------
DR11 -3.07 dB -17.86 dB 3:43 01-In The Cathedral
DR11 -3.56 dB -18.38 dB 6:04 02-Ave Maria
DR12 -1.58 dB -18.04 dB 4:59 03-Conversation: Joseph Hyden Concerto
DR11 -5.23 dB -22.01 dB 2:22 04-An Caoineah
DR11 -2.23 dB -17.39 dB 4:38 05-Scherzo 2 Symphony
DR13 -5.07 dB -23.44 dB 3:07 06-Away In A Manger
DR10 -3.00 dB -16.87 dB 3:50 07-Notre Dame
DR13 -4.56 dB -22.56 dB 4:49 08-The Darkest Midnight
DR11 -2.97 dB -18.94 dB 4:29 09-Intermezzo from 'Cavalleria Rusticana'
DR12 -5.39 dB -22.30 dB 3:21 10-The Holly And The Ivy
DR11 -4.30 dB -18.80 dB 3:33 11-Coulin (Irish Traditional)
DR11 -2.72 dB -19.43 dB 3:16 12-Seinn Aililiu
DR11 -3.47 dB -18.52 dB 2:36 13-Abide With Me
--------------------------------------------------------------------------------

Number of tracks: 13
Official DR value: DR11

Samplerate: 44100 Hz
Channels: 2
Bits per sample: 16
Bitrate: 674 kbps
Codec: FLAC
================================================================================



CD Info:

James Last - In der St. Patricks Cathedral

Label: Polydor
Catalog#: 823 669-2 Y
Format: CD, Album, Reissue
Country: Germany
Released: 1984
Genre: Pop, Classical, Folk
Style: Easy Listening, Instrumental, Irish Folk

Tracklist:

1 In The Cathedral 3:43
2 Ave Maria 6:04
3 Conversation: Joseph Hyden Concerto 4:59
4 An Caoineah 2:22
5 Scherzo 2 Symphony 4:38
6 Away In A Manger 3:07
7 Notre Dame 3:50
8 The Darkest Midnight 4:49
9 Intermezzo from 'Cavalleria Rusticana' 4:29
10 The Holly And The Ivy 3:21
11 Coulin (Irish Traditional) 3:33
12 Seinn Aililiu 3:16
13 Abide With Me 2:36

CD is manufactured by PolyGram in Hanover, West Germany

Artist Biography by Stephen Thomas Erlewine

James Last is a German big band leader with a large fan base in Europe, although he has never had a comparable following in the United States. Last's trademark is arranging pop hits in a big-band style; his series of "party albums" is equally well-known. Over the course of his career, he has sold well over 50 million albums.

Last learned how to play piano as child, switching to bass as a teenager. He joined Hans-Gunther Oesterreich's Radio Bremen Dance Orchestra in 1946, when he was 17 years old. In 1948, he became the leader of the Becker-Last Ensemble, which performed for seven years. During that time, he was voted as the best bassist in the country by a German jazz poll for three consecutive years, from 1950-1952. After the disbandment of the Becker-Last Ensemble, he became the in-house arranger for Polydor Records, as well as for a number of European radio stations. For the next decade, he helped arrange hits for artists like Helmut Zacharias and Caterina Valente.

Last released his first album, Non-Stop Dancing, in 1965. The record of brief renditions of popular songs, all tied together by an insistent dance beat and joyous crowd noises. It was a hit and helped make him a major European star. Over the next two decades, Last released over 50 records, including several more volumes of Non-Stop Dancing. On these records, he varied his formula by adding different songs from different countries and genres, as well as guest performers like Richard Clayderman and Astrud Gilberto.

Though his concerts and albums were consistently successful -- especially in England, where he had 52 hit albums between 1967-1986, which made him second to Elvis Presley in terms of number of charting records -- he only had one hit single with "The Seduction," the theme from American Gigolo (1980). ~allmusicguide



________________

NITROFLARE

Music Pt. 1 | | Music Pt. 2

Artwork

________________


Happy St Patricks Day | Patricks Day | Cathedral Choir | 1984 Bluray 1984 Amiable | The Flamingo Kid 1984 | Canterbury Cathedral Is Safe 1 | St Patricks Day | Hot Spa 1984 | Fun Fun 1984 | Best Defense 1984
James Last - In der St. Patricks Cathedral (1984 Polydor # 823 669-2 Y) Torrent Download with keygen, crack, serial, dvdrip, hdrip, HD, 720p, 1024p, 2016, 2015