Play Now (Stream) | Hum Sitaray Telefilms | Digimon / Digimon Adventure

James Last - Happy Lehár (1970 1980s reissue Polydor # 821 609-2 Y)

New Download Links
Speed
 kbps
 kbps
 kbps

James Last - Happy Lehár
EAC+LOG+CUE | FLAC: 222 MB | Full Artwork: 42 MB | 5% Recovery Info
Label/Cat#: Polydor # 821 609-2 Y | Country/Year: Germany 198_, 1970
Genre: Pop, Classical | Style: Easy Listening, Instrumental, Waltz

MD5 [X] CUE [X] LOG [X] INFO TEXT [X] ARTWORK [X]

my rip [X] not my rip [ ]



EAC LOG
Exact Audio Copy V1.0 beta 3 from 29. August 2011

EAC extraction logfile from 17. September 2013, 14:34

James Last / Happy Lehár

Used drive : PLEXTOR CD-R PX-W1210A Adapter: 1 ID: 0

Read mode : Secure
Utilize accurate stream : Yes
Defeat audio cache : Yes
Make use of C2 pointers : No

Read offset correction : 99
Overread into Lead-In and Lead-Out : No
Fill up missing offset samples with silence : Yes
Delete leading and trailing silent blocks : No
Null samples used in CRC calculations : Yes
Used interface : Native Win32 interface for Win NT & 2000

Used output format : User Defined Encoder
Selected bitrate : 1024 kBit/s
Quality : High
Add ID3 tag : Yes
Command line compressor : C:Program FilesFLACflac.exe
Additional command line options : -5 -T "Artist=%artist%" -T "Title=%title%" -T "Album=%albumtitle%" -T "Date=%year%" -T "Tracknumber=%tracknr%" -T "Genre=%genre%" %source% -o %dest% TOC of the extracted CD

Track | Start | Length | Start sector | End sector
---------------------------------------------------------
1 | 0:00.32 | 4:27.23 | 32 | 20079
2 | 4:27.55 | 4:48.40 | 20080 | 41719
3 | 9:16.20 | 2:41.40 | 41720 | 53834
4 | 11:57.60 | 4:18.45 | 53835 | 73229
5 | 16:16.30 | 4:17.42 | 73230 | 92546
6 | 20:33.72 | 3:31.63 | 92547 | 108434
7 | 24:05.60 | 3:25.15 | 108435 | 123824
8 | 27:31.00 | 3:54.07 | 123825 | 141381
9 | 31:25.07 | 4:08.38 | 141382 | 160019
10 | 35:33.45 | 4:25.27 | 160020 | 179921 Range status and errors

Selected range

Filename F:=== VINYL RIPS ====== EAC===X FRESH RIPJames Last - Happy Lehár.wav

Peak level 87.3 %
Extraction speed 0.4 X
Range quality 100.0 %
Copy CRC 0BCE4121
Copy OK

No errors occurred


AccurateRip summary

Track 1 not present in database
Track 2 not present in database
Track 3 not present in database
Track 4 not present in database
Track 5 not present in database
Track 6 not present in database
Track 7 not present in database
Track 8 not present in database
Track 9 not present in database
Track 10 not present in database

None of the tracks are present in the AccurateRip database

End of status report

---- CUETools DB Plugin V2.1.3

[CTDB TOCID: 3v93orffZXZzvQRKRsTKkGra5Ys-] disk not present in database, Submit result: discs with pregaps not supported in this protocol version ==== Log checksum F719133A158403D28533A2D72EBAC5FF46BA968C966FC43479984929C4E3C609 ====

Dynamic Range LOG
foobar2000 1.1.14a / Dynamic Range Meter 1.1.1
log date: 2013-09-21 15:43:09

--------------------------------------------------------------------------------
Analyzed: James Last / Happy Lehár
--------------------------------------------------------------------------------

DR Peak RMS Duration Track
--------------------------------------------------------------------------------
DR13 -2.01 dB -18.18 dB 4:27 01-Freunde das Leben ist Lebenswert - Da geh´ich in´s Maxim - Ach, die Weiber
DR14 -1.43 dB -18.60 dB 4:49 02-Vilja, o Vilja - Dein ist mein ganze Herz - Niemand liebt Dioch so wie ich
DR11 -3.85 dB -18.62 dB 2:42 03-Schön ist die Welt - Meine Lippen, die küssen heiß
DR14 -1.30 dB -19.04 dB 4:19 04-Meine Liebe, Deine Liebe - Schön sind lachende Frau´n - In der blauen Pagode
DR14 -2.76 dB -20.24 dB 4:18 05-Wolga-Lied - Lippen schweigen - Mädel klein Mädel fein
DR12 -1.81 dB -18.13 dB 3:32 06-Bist Du´s, lachendes Glück - Nechledil - Ich hol´Dir vom Himmel das Blau
DR13 -1.17 dB -19.47 dB 3:25 07-Hab´ein blaues Himmelbett - Gern´hab´ich die Frau´n geküßt
DR14 -2.21 dB -20.50 dB 3:54 08-Nur die Liebe macht uns jung - Du bist meine Sonne - O Mädchen, mein Mädchen
DR11 -2.89 dB -19.56 dB 4:09 09-Immer nur lächeln - Wer hat die Liebe uns ins Herz gesenkt - Hab´nur Dich allein
DR14 -1.87 dB -19.31 dB 4:25 10-Einer wird kommen - Napolitana - Zorika, kehre zurück
--------------------------------------------------------------------------------

Number of tracks: 10
Official DR value: DR13

Samplerate: 44100 Hz
Channels: 2
Bits per sample: 16
Bitrate: 778 kbps
Codec: FLAC
================================================================================



CD Info:

James Last - Happy Lehár

Label: Polydor
Catalog#: 821 609-2 Y
Format: CD, Album, Reissue
Country: Germany
Released: 198_, 1970
Genre: Pop, Classical
Style: Easy Listening, Instrumental, Waltz

Tracklist:

1 Freunde das Leben ist Lebenswert - Da geh´ich in´s Maxim - Ach, die Weiber 4:27
2 Vilja, o Vilja - Dein ist mein ganze Herz - Niemand liebt Dioch so wie ich 4:49
3 Schön ist die Welt - Meine Lippen, die küssen heiß 2:42
4 Meine Liebe, Deine Liebe - Schön sind lachende Frau´n - In der blauen Pagode 4:19
5 Wolga-Lied - Lippen schweigen - Mädel klein Mädel fein 4:18
6 Bist Du´s, lachendes Glück - Nechledil - Ich hol´Dir vom Himmel das Blau 3:32
7 Hab´ein blaues Himmelbett - Gern´hab´ich die Frau´n geküßt 3:25
8 Nur die Liebe macht uns jung - Du bist meine Sonne - O Mädchen, mein Mädchen 3:54
9 Immer nur lächeln - Wer hat die Liebe uns ins Herz gesenkt - Hab´nur Dich allein 4:09
10 Einer wird kommen - Napolitana - Zorika, kehre zurück 4:25

CD is manufactured by PolyGram in Hanover, West Germany

Artist Biography by Stephen Thomas Erlewine

James Last is a German big band leader with a large fan base in Europe, although he has never had a comparable following in the United States. Last's trademark is arranging pop hits in a big-band style; his series of "party albums" is equally well-known. Over the course of his career, he has sold well over 50 million albums.

Last learned how to play piano as child, switching to bass as a teenager. He joined Hans-Gunther Oesterreich's Radio Bremen Dance Orchestra in 1946, when he was 17 years old. In 1948, he became the leader of the Becker-Last Ensemble, which performed for seven years. During that time, he was voted as the best bassist in the country by a German jazz poll for three consecutive years, from 1950-1952. After the disbandment of the Becker-Last Ensemble, he became the in-house arranger for Polydor Records, as well as for a number of European radio stations. For the next decade, he helped arrange hits for artists like Helmut Zacharias and Caterina Valente.

Last released his first album, Non-Stop Dancing, in 1965. The record of brief renditions of popular songs, all tied together by an insistent dance beat and joyous crowd noises. It was a hit and helped make him a major European star. Over the next two decades, Last released over 50 records, including several more volumes of Non-Stop Dancing. On these records, he varied his formula by adding different songs from different countries and genres, as well as guest performers like Richard Clayderman and Astrud Gilberto.

Though his concerts and albums were consistently successful -- especially in England, where he had 52 hit albums between 1967-1986, which made him second to Elvis Presley in terms of number of charting records -- he only had one hit single with "The Seduction," the theme from American Gigolo (1980). ~allmusicguide



________________

NITROFLARE

Music Pt. 1 | | Music Pt. 2

Artwork

________________


The 1980S The Deadliest Decade | Performance 1970 | 1970 | The Greatest Ever The 1980S | The Greatest Ever The 1980S 5Cd 2016 | Catch 22 1970 | That The Way It Is 1970 | The Ear 1970 | Happy Wife Happy Life | The Sunflower 1970
James Last - Happy Lehár (1970 1980s reissue Polydor # 821 609-2 Y) Torrent Download with keygen, crack, serial, dvdrip, hdrip, HD, 720p, 1024p, 2016, 2015