Seven Princess Driver | Katie Leung | Jay-Z, Kanye West, Rihanna - Run This Town

Emmylou Harris and The Nash Ramblers - At The Ryman (1992)

New Download Links
Speed
 kbps
 kbps
 kbps

Emmylou Harris and The Nash Ramblers - At The Ryman (1992)
Folk | 1cd | EAC Rip | Flac + Cue + Log | covers
Reprise 9 26664-2 | rec: 1991 | 385Mb

This is the album debut of the Nashville Ramblers, her acoustic backing band featuring Sam Bush and Roy Huskey Jr, recorded over three nights in the former home of the Grand Ole Opry. Harris's choice of songs strikes a balance between hillbilly classics and folk-influenced rock, with Bill Monroe receiving heaviest tribute but sharing space with Tex Owens, Bruce Springsteen, and John Fogerty. ~Allmusic

Track listing
01. Guitar Town (2:56)
02. Half As Much (3:01)
03. Cattle Call (3:12)
04. Guess Things Happen That Way (2:26)
05. Hard Times (3:25)
06. Mansion On The Hill (4:27)
07. Scotland (2:59)
08. Montana Cowgirl (3:09)
09. Like Strangers (4:57)
10. Lodi (3:08)
11. Calling My Children Home (3:15)
12. If I Could Be There (3:30)
13. Walls Of Time (4:45)
14. Get Up John (4:26)
15. It's A Hard Life Wherever You Go/Abraham, Martin And John (7:03)
16. Smoke Along The Track (4:17)
~ (60:56)

eac log:

Exact Audio Copy V1.0 beta 3 from 29. August 2011

Отчёт EAC об извлечении, выполненном 23. октября 2014, 21:51

Emmylou Harris And The Nash Ramblers / At The Ryman

Дисковод: ASUS DVD-E616A3T Adapter: 5 ID: 0

Режим чтения : Достоверность
Использование точного потока : Да
Отключение кэша аудио : Да
Использование указателей C2 : Нет

Коррекция смещения при чтении : 6
Способность читать области Lead-in и Lead-out : Нет
Заполнение пропущенных сэмплов тишиной : Да
Удаление блоков с тишиной в начале и конце : Нет
При вычислениях CRC использовались нулевые сэмплы : Да
Интерфейс : Встроенный Win32-интерфейс для Win NT/2000
Обработка зазоров : Добавлено к предыдущему треку

Выходной формат : Пользовательский кодировщик
Выбранный битрейт : 128 kBit/s
Качество : Высокий
Добавление ID3-тега : Нет
Утилита сжатия : C:Program FilesExact Audio CopyFlacflac.exe
Дополнительные параметры : -V -8 -T "Genre=%genre%" -T "Artist=%artist%" -T "Title=%title%" -T "Album=%albumtitle%" -T "Date=%year%" -T "Tracknumber=%tracknr%" -T "Comment=EAC1.0b2 FLAC -8" %source% TOC извлечённого CD

Трек | Старт | Длительность | Начальный сектор | Конечный сектор
---------------------------------------------------------------------
1 | 0:00.33 | 2:56.35 | 33 | 13267
2 | 2:56.68 | 3:01.17 | 13268 | 26859
3 | 5:58.10 | 3:11.40 | 26860 | 41224
4 | 9:09.50 | 2:25.55 | 41225 | 52154
5 | 11:35.30 | 3:25.25 | 52155 | 67554
6 | 15:00.55 | 4:26.43 | 67555 | 87547
7 | 19:27.23 | 2:58.57 | 87548 | 100954
8 | 22:26.05 | 3:08.58 | 100955 | 115112
9 | 25:34.63 | 4:57.20 | 115113 | 137407
10 | 30:32.08 | 3:07.50 | 137408 | 151482
11 | 33:39.58 | 3:15.02 | 151483 | 166109
12 | 36:54.60 | 3:30.30 | 166110 | 181889
13 | 40:25.15 | 4:45.33 | 181890 | 203297
14 | 45:10.48 | 4:25.70 | 203298 | 223242
15 | 49:36.43 | 7:02.55 | 223243 | 254947
16 | 56:39.23 | 4:16.70 | 254948 | 274217 Трек 1

Имя файла R:Раздача 26Emmylou Harris and the Nash Ramblers - 1992 - At The Ryman1 Guitar Town.wav

Длина предзазора 0:00:02.33

Пиковый уровень 99.2 %
Скорость извлечения 1.5 X
Качество трека 100.0 %
CRC теста E5DC8214
CRC копии E5DC8214
Точное извлечение (достоверность 30) [17C2E9D6] (AR v2)
Копирование... OK

Трек 2

Имя файла R:Раздача 26Emmylou Harris and the Nash Ramblers - 1992 - At The Ryman2 Half As Much.wav

Пиковый уровень 99.2 %
Скорость извлечения 1.5 X
Качество трека 99.9 %
CRC теста 07FA7CF5
CRC копии 07FA7CF5
Точное извлечение (достоверность 31) [0BFFD20E] (AR v2)
Копирование... OK

Трек 3

Имя файла R:Раздача 26Emmylou Harris and the Nash Ramblers - 1992 - At The Ryman3 Cattle Call.wav

Пиковый уровень 70.4 %
Скорость извлечения 1.7 X
Качество трека 99.9 %
CRC теста 596A5521
CRC копии 596A5521
Точное извлечение (достоверность 30) [D584BB75] (AR v2)
Копирование... OK

Трек 4

Имя файла R:Раздача 26Emmylou Harris and the Nash Ramblers - 1992 - At The Ryman4 Guess Things Happen That Way.wav

Пиковый уровень 87.5 %
Скорость извлечения 1.3 X
Качество трека 99.8 %
CRC теста 467EDCA3
CRC копии 467EDCA3
Точное извлечение (достоверность 31) [1F3CA0D1] (AR v2)
Копирование... OK

Трек 5

Имя файла R:Раздача 26Emmylou Harris and the Nash Ramblers - 1992 - At The Ryman5 Hard Times.wav

Пиковый уровень 77.4 %
Скорость извлечения 2.2 X
Качество трека 100.0 %
CRC теста 273785A2
CRC копии 273785A2
Точное извлечение (достоверность 29) [329684C2] (AR v2)
Копирование... OK

Трек 6

Имя файла R:Раздача 26Emmylou Harris and the Nash Ramblers - 1992 - At The Ryman6 Mansion On The Hill.wav

Пиковый уровень 99.2 %
Скорость извлечения 2.1 X
Качество трека 99.9 %
CRC теста 842A7F38
CRC копии 842A7F38
Точное извлечение (достоверность 30) [28654142] (AR v2)
Копирование... OK

Трек 7

Имя файла R:Раздача 26Emmylou Harris and the Nash Ramblers - 1992 - At The Ryman7 Scotland.wav

Пиковый уровень 99.2 %
Скорость извлечения 2.4 X
Качество трека 100.0 %
CRC теста 28B226F8
CRC копии 28B226F8
Точное извлечение (достоверность 30) [BC20C5A6] (AR v2)
Копирование... OK

Трек 8

Имя файла R:Раздача 26Emmylou Harris and the Nash Ramblers - 1992 - At The Ryman8 Montana Cowgirl.wav

Пиковый уровень 99.2 %
Скорость извлечения 2.5 X
Качество трека 100.0 %
CRC теста FB2CE996
CRC копии FB2CE996
Точное извлечение (достоверность 30) [77E39107] (AR v2)
Копирование... OK

Трек 9

Имя файла R:Раздача 26Emmylou Harris and the Nash Ramblers - 1992 - At The Ryman9 Like Strangers.wav

Пиковый уровень 98.7 %
Скорость извлечения 2.8 X
Качество трека 100.0 %
CRC теста E33DFFD5
CRC копии E33DFFD5
Точное извлечение (достоверность 30) [37985829] (AR v2)
Копирование... OK

Трек 10

Имя файла R:Раздача 26Emmylou Harris and the Nash Ramblers - 1992 - At The Ryman10 Lodi.wav

Пиковый уровень 99.2 %
Скорость извлечения 2.7 X
Качество трека 100.0 %
CRC теста 5732B104
CRC копии 5732B104
Точное извлечение (достоверность 29) [3329B937] (AR v2)
Копирование... OK

Трек 11

Имя файла R:Раздача 26Emmylou Harris and the Nash Ramblers - 1992 - At The Ryman11 Calling My Children Home.wav

Пиковый уровень 99.2 %
Скорость извлечения 2.8 X
Качество трека 100.0 %
CRC теста E927FD8B
CRC копии E927FD8B
Точное извлечение (достоверность 30) [5DC1028E] (AR v2)
Копирование... OK

Трек 12

Имя файла R:Раздача 26Emmylou Harris and the Nash Ramblers - 1992 - At The Ryman12 If I Could Be There.wav

Пиковый уровень 99.2 %
Скорость извлечения 3.0 X
Качество трека 100.0 %
CRC теста 69CD09F2
CRC копии 69CD09F2
Точное извлечение (достоверность 29) [FA9A0A92] (AR v2)
Копирование... OK

Трек 13

Имя файла R:Раздача 26Emmylou Harris and the Nash Ramblers - 1992 - At The Ryman13 Walls Of Time.wav

Пиковый уровень 99.2 %
Скорость извлечения 3.2 X
Качество трека 100.0 %
CRC теста F17BD3FE
CRC копии F17BD3FE
Точное извлечение (достоверность 29) [5D85BA8C] (AR v2)
Копирование... OK

Трек 14

Имя файла R:Раздача 26Emmylou Harris and the Nash Ramblers - 1992 - At The Ryman14 Get Up John.wav

Пиковый уровень 99.2 %
Скорость извлечения 2.7 X
Качество трека 99.9 %
CRC теста 84817C51
CRC копии 84817C51
Точное извлечение (достоверность 28) [30EA5583] (AR v2)
Копирование... OK

Трек 15

Имя файла R:Раздача 26Emmylou Harris and the Nash Ramblers - 1992 - At The Ryman15 It's A Hard Life Wherever You Go,Abraham, Martin And John.wav

Пиковый уровень 99.2 %
Скорость извлечения 3.6 X
Качество трека 100.0 %
CRC теста 25DD389F
CRC копии 25DD389F
Точное извлечение (достоверность 30) [36A67A02] (AR v2)
Копирование... OK

Трек 16

Имя файла R:Раздача 26Emmylou Harris and the Nash Ramblers - 1992 - At The Ryman16 Smoke Along The Track.wav

Пиковый уровень 99.2 %
Скорость извлечения 3.5 X
Качество трека 100.0 %
CRC теста B06248A5
CRC копии B06248A5
Точное извлечение (достоверность 29) [5DF33FBD] (AR v2)
Копирование... OK Все треки извлечены точно

Ошибок не произошло

Конец отчёта

==== Контрольная сумма отчёта 0B309FD529AC39DCD6D01E3947EAFAF30350E86A4AA38E13BBE5B24CB978EE8E ====


cuetools report:

[CUETools log; Date: 2015.06.08. 10:55:00; Version: 2.1.5]
Pregap length 00:00:33.
[CTDB TOCID: j_skJDOEXG2T9LZQzK8fPkQGPSg-] found.
Track | CTDB Status
1 | (6/6) Accurately ripped
2 | (6/6) Accurately ripped
3 | (6/6) Accurately ripped
4 | (6/6) Accurately ripped
5 | (6/6) Accurately ripped
6 | (6/6) Accurately ripped
7 | (6/6) Accurately ripped
8 | (6/6) Accurately ripped
9 | (5/6) Accurately ripped, or (1/6) differs in 332 samples @00:11:50,00:14:42,00:17:18,00:19:33,00:32:33,00:35:13-00:35:14,00:36:20,00:47:21,01:08:15,01:09:22,01:43:42-01:43:43,02:11:50,03:02:44-03:02:45,03:16:01,03:53:24-03:53:25,04:07:36,04:14:22
10 | (6/6) Accurately ripped
11 | (5/6) Accurately ripped, or (1/6) differs in 10 samples @01:50:10
12 | (6/6) Accurately ripped
13 | (6/6) Accurately ripped
14 | (6/6) Accurately ripped
15 | (6/6) Accurately ripped
16 | (6/6) Accurately ripped
[AccurateRip ID: 0020009e-0188966d-d40e4810] found.
Track [ CRC | V2 ] Status
01 [ea841a65|17c2e9d6] (39+35/74) Accurately ripped
02 [f1fea219|0bffd20e] (39+37/76) Accurately ripped
03 [23596c8c|d584bb75] (38+36/74) Accurately ripped
04 [741d4e64|1f3ca0d1] (39+37/76) Accurately ripped
05 [e0f7b944|329684c2] (39+35/74) Accurately ripped
06 [fc9d506e|28654142] (39+36/75) Accurately ripped
07 [97eb164c|bc20c5a6] (39+35/74) Accurately ripped
08 [428c03d2|77e39107] (38+36/74) Accurately ripped
09 [076ed18e|37985829] (38+35/73) Accurately ripped
10 [ea23ca3d|3329b937] (38+35/73) Accurately ripped
11 [82c01d24|5dc1028e] (37+36/73) Accurately ripped
12 [6ba365ad|fa9a0a92] (39+35/74) Accurately ripped
13 [e7a58ffb|5d85ba8c] (38+35/73) Accurately ripped
14 [3c9561ac|30ea5583] (37+34/71) Accurately ripped
15 [dcc5f021|36a67a02] (38+36/74) Accurately ripped
16 [fa2a18d2|5df33fbd] (36+34/70) Accurately ripped

Track Peak [ CRC32 ] [W/O NULL] [ LOG ]
-- 99,2 [A396297A] [C9BAC652]
01 99,2 [E5DC8214] [9BB35E2E] CRC32
02 99,2 [07FA7CF5] [2442D2CB] CRC32
03 70,4 [596A5521] [245A3942] CRC32
04 87,5 [467EDCA3] [FE0CF4B2] CRC32
05 77,4 [273785A2] [215D923D] CRC32
06 99,2 [842A7F38] [B63FE9C4] CRC32
07 99,2 [28B226F8] [05B3BA6A] CRC32
08 99,2 [FB2CE996] [AF496AD2] CRC32
09 98,7 [E33DFFD5] [4EA004DC] CRC32
10 99,2 [5732B104] [BF801E4A] CRC32
11 99,2 [E927FD8B] [A33BEFAE] CRC32
12 99,2 [69CD09F2] [EB8C7708] CRC32
13 99,2 [F17BD3FE] [7BE4D05E] CRC32
14 99,2 [84817C51] [D3D318E5] CRC32
15 99,2 [25DD389F] [93A6C46B] CRC32
16 99,2 [B06248A5] [996F22BD] CRC32


Thx to clustert


Yunfile

password: asd


Emmylou Harris At The Ryman 1992 | Geoff Ryman Paradise Tales | Emmylou Harris The Nash Ramblers 1995 Dvdrip X264 Ac3Eng Torrent | Emmylou Harris Portraits | Harris At The Ryman | Emmylou Harris The Traveling | Emmylou Harris And Rodney Crowell The Traveling Kind | Emmylou Harris Cimarron | Anthology Emmylou Harris | Emmylou Harris Flac
Emmylou Harris and The Nash Ramblers - At The Ryman (1992) Torrent Download with keygen, crack, serial, dvdrip, hdrip, HD, 720p, 1024p, 2016, 2015