I'm Not Just Going to Do What Kurosaki kun Says (2016) | Nur zwei Monate Best Prom Ever | Giovanni Ribisi

V.A. - Saura (2005)

New Download Links
Speed
 kbps
 kbps
 kbps

V.A. - Saura (2005)
EAC Rip | FLAC (tracks+.cue+log) - 358 MB | MP3 CBR 320 kbps (LAME 3.93) - 122 MB | Covers - 153 MB
Genre: New Age | RAR 3% Rec. | Label: Gemini Sun Records (GSR7020)

"Saura", also known in Sanskrit as relating to the sun, or solar. take a south of the border trip to your favorite sunny spot as your lighter side embraces the upbeat, melodic, and latin grooving sounds of chart topping artists such as Johannes Linstead, Nicholas Gunn, and Loren Gold. Imagine the sand between your toes and the ocean breeze in your hair with this sun drenched compilation from Gemini sun Records.

Tracklist:
01. Johannes Linstead - Sangre Del Toro
02. Loren Gold - Blaze of Light
03. Nicholas Gunn - Indigo Skies
04. Nicholas Gunn - Bamboo
05. Nicholas Gunn - Riverside Walk
06. Nicholas Gunn - Viaje Sagrado
07. Loren Gold - 4 My Baby
08. Nicholas Gunn - Apasionado Uno
09. Nicholas Gunn - Breathe
10. Johannes Linstead - Motika
11. Nicholas Gunn - Crossroads
12. Nicholas Gunn - Rosaria Sunset
13. Nicholas Gunn - La Morada en el Templo Antiguo

Total time: 51:44

EAC log
Exact Audio Copy V0.99 prebeta 5 from 4. May 2009

EAC extraction logfile from 28. October 2010, 1:03

Various / Saura

Used drive : PLEXTOR DVDR PX-760A Adapter: 3 ID: 0

Read mode : Secure
Utilize accurate stream : Yes
Defeat audio cache : Yes
Make use of C2 pointers : No

Read offset correction : 30
Overread into Lead-In and Lead-Out : No
Fill up missing offset samples with silence : Yes
Delete leading and trailing silent blocks : No
Null samples used in CRC calculations : Yes
Used interface : Installed external ASPI interface
Gap handling : Appended to previous track

Used output format : User Defined Encoder
Selected bitrate : 128 kBit/s
Quality : Low
Add ID3 tag : No
Command line compressor : C:Program FilesExact Audio CopyFlacflac.exe
Additional command line options : -8 -V -T "ARTIST=%a" -T "TITLE=%t" -T "ALBUM=%g" -T "DATE=%y" -T "TRACKNUMBER=%n" -T "GENRE=%m" -T "COMMENT=ripped by DrStandBy" %s TOC of the extracted CD

Track | Start | Length | Start sector | End sector
---------------------------------------------------------
1 | 0:00.00 | 4:01.45 | 0 | 18119
2 | 4:01.45 | 2:49.59 | 18120 | 30853
3 | 6:51.29 | 4:15.49 | 30854 | 50027
4 | 11:07.03 | 5:27.53 | 50028 | 74605
5 | 16:34.56 | 4:49.51 | 74606 | 96331
6 | 21:24.32 | 3:51.43 | 96332 | 113699
7 | 25:16.00 | 3:32.72 | 113700 | 129671
8 | 28:48.72 | 4:02.30 | 129672 | 147851
9 | 32:51.27 | 3:50.64 | 147852 | 165165
10 | 36:42.16 | 3:23.14 | 165166 | 180404
11 | 40:05.30 | 3:42.43 | 180405 | 197097
12 | 43:47.73 | 4:19.59 | 197098 | 216581
13 | 48:07.57 | 3:36.39 | 216582 | 232820 Track 1

Filename E:Nicholas Gunn2005 - Saura (Gemini Sun #GSR7020)1. Johannes Linstead - Sangre Del Toro.wav

Pre-gap length 0:00:02.00

Peak level 96.6 %
Track quality 100.0 %
Test CRC B63BF627
Copy CRC B63BF627
Track not present in AccurateRip database
Copy OK

Track 2

Filename E:Nicholas Gunn2005 - Saura (Gemini Sun #GSR7020)2. Loren Gold - Blaze of Light.wav

Pre-gap length 0:00:01.89

Peak level 96.6 %
Track quality 100.0 %
Test CRC 10160BD4
Copy CRC 10160BD4
Track not present in AccurateRip database
Copy OK

Track 3

Filename E:Nicholas Gunn2005 - Saura (Gemini Sun #GSR7020)3. Nicholas Gunn - Indigo Skies.wav

Pre-gap length 0:00:01.08

Peak level 96.6 %
Track quality 100.0 %
Test CRC 383C408D
Copy CRC 383C408D
Track not present in AccurateRip database
Copy OK

Track 4

Filename E:Nicholas Gunn2005 - Saura (Gemini Sun #GSR7020)4. Nicholas Gunn - Bamboo.wav

Pre-gap length 0:00:00.76

Peak level 96.6 %
Track quality 100.0 %
Test CRC 6F1D079F
Copy CRC 6F1D079F
Track not present in AccurateRip database
Copy OK

Track 5

Filename E:Nicholas Gunn2005 - Saura (Gemini Sun #GSR7020)5. Nicholas Gunn - Riverside Walk.wav

Pre-gap length 0:00:00.70

Peak level 96.6 %
Track quality 100.0 %
Test CRC 3C13CB3E
Copy CRC 3C13CB3E
Track not present in AccurateRip database
Copy OK

Track 6

Filename E:Nicholas Gunn2005 - Saura (Gemini Sun #GSR7020)6. Nicholas Gunn - Viaje Sagrado.wav

Pre-gap length 0:00:01.49

Peak level 96.6 %
Track quality 100.0 %
Test CRC 9720BA2F
Copy CRC 9720BA2F
Track not present in AccurateRip database
Copy OK

Track 7

Filename E:Nicholas Gunn2005 - Saura (Gemini Sun #GSR7020)7. Loren Gold - 4 My Baby.wav

Pre-gap length 0:00:00.92

Peak level 96.6 %
Track quality 100.0 %
Test CRC 6EB00F23
Copy CRC 6EB00F23
Track not present in AccurateRip database
Copy OK

Track 8

Filename E:Nicholas Gunn2005 - Saura (Gemini Sun #GSR7020)8. Nicholas Gunn - Apasionado Uno.wav

Pre-gap length 0:00:01.98

Peak level 96.6 %
Track quality 99.9 %
Test CRC D67F7D9B
Copy CRC D67F7D9B
Track not present in AccurateRip database
Copy OK

Track 9

Filename E:Nicholas Gunn2005 - Saura (Gemini Sun #GSR7020)9. Nicholas Gunn - Breathe.wav

Pre-gap length 0:00:00.33

Peak level 96.6 %
Track quality 100.0 %
Test CRC 8DE5AC00
Copy CRC 8DE5AC00
Track not present in AccurateRip database
Copy OK

Track 10

Filename E:Nicholas Gunn2005 - Saura (Gemini Sun #GSR7020)10. Johannes Linstead - Motika.wav

Pre-gap length 0:00:01.17

Peak level 96.6 %
Track quality 99.9 %
Test CRC DD09E9F7
Copy CRC DD09E9F7
Track not present in AccurateRip database
Copy OK

Track 11

Filename E:Nicholas Gunn2005 - Saura (Gemini Sun #GSR7020)11. Nicholas Gunn - Crossroads.wav

Pre-gap length 0:00:01.16

Peak level 96.6 %
Track quality 100.0 %
Test CRC 9E5AAF21
Copy CRC 9E5AAF21
Track not present in AccurateRip database
Copy OK

Track 12

Filename E:Nicholas Gunn2005 - Saura (Gemini Sun #GSR7020)12. Nicholas Gunn - Rosaria Sunset.wav

Pre-gap length 0:00:01.02

Peak level 96.6 %
Track quality 100.0 %
Test CRC D5F24B19
Copy CRC D5F24B19
Track not present in AccurateRip database
Copy OK

Track 13

Filename E:Nicholas Gunn2005 - Saura (Gemini Sun #GSR7020)13. Nicholas Gunn - La Morada en el Templo Antiguo.wav

Pre-gap length 0:00:00.49

Peak level 96.6 %
Track quality 99.9 %
Test CRC 15C133BF
Copy CRC 15C133BF
Track not present in AccurateRip database
Copy OK None of the tracks are present in the AccurateRip database

No errors occurred

End of status report

CUETools log
[CUETools log; Date: 20.04.2015 12:07:17; Version: 2.1.4]
[CTDB TOCID: HsanrUgyJ0qqqGTSOY8w5AeLa98-] disk not present in database.
[AccurateRip ID: 001939f4-00fc1428-c20c200d] found.
Track [ CRC | V2 ] Status
01 [a44b16f4|0fa8ae7f] (1+0/1) Accurately ripped
02 [7d59f582|847dbb0c] (1+0/1) Accurately ripped
03 [bce6d7f5|5392742f] (1+0/1) Accurately ripped
04 [48454d19|4650bd74] (1+0/1) Accurately ripped
05 [583ac296|7629cba9] (1+0/1) Accurately ripped
06 [60710aa2|f1be37cf] (1+0/1) Accurately ripped
07 [c3393ace|acfc4d66] (1+0/1) Accurately ripped
08 [6b13550b|f633a31a] (1+0/1) Accurately ripped
09 [80ae675c|1930325b] (1+0/1) Accurately ripped
10 [8bf3ba4c|8e706592] (1+0/1) Accurately ripped
11 [ff2cc5b3|409367e5] (1+0/1) Accurately ripped
12 [af7fccfb|87813a01] (1+0/1) Accurately ripped
13 [650477b7|80f107ac] (1+0/1) Accurately ripped

Track Peak [ CRC32 ] [W/O NULL] [ LOG ]
-- 96,6 [FCB18ED6] [33AE741D]
01 96,6 [B63BF627] [E299426F] CRC32
02 96,6 [10160BD4] [203BDDA6] CRC32
03 96,6 [383C408D] [B8D6E6DF] CRC32
04 96,6 [6F1D079F] [53AC64F8] CRC32
05 96,6 [3C13CB3E] [F718769F] CRC32
06 96,6 [9720BA2F] [8F96E1C7] CRC32
07 96,6 [6EB00F23] [DC28A1B6] CRC32
08 96,6 [D67F7D9B] [82A85ABC] CRC32
09 96,6 [8DE5AC00] [BF158D89] CRC32
10 96,6 [DD09E9F7] [6C0364B0] CRC32
11 96,6 [9E5AAF21] [90B94DA5] CRC32
12 96,6 [D5F24B19] [8999A07E] CRC32
13 96,6 [15C133BF] [54190955] CRC32

Thanks to DrStandBy

See also:


Nitroflare.com

LOSSLESS:
Nitroflare.com
_______________

MP3 320 kbps:
Nitroflare.com
_______________

Covers:
Nitroflare.com

Uploadable.ch

LOSSLESS:
Uploadable.ch
_______________

MP3 320 kbps:
Uploadable.ch
_______________

Covers:
Uploadable.ch

Mirror Download
Mirror1 : V.A. - Saura (2005)

Mirror2: V.A. - Saura (2005)

Torrent Download:
V.A. - Saura (2005).torrent

Carlos Saura | 2005 Red Eye | Everything You Want 2005 | Pro Asp Net 2 0 C 2005 | Bal Can Can 2005 | The Five 2005 | F E A R 2005 | The Ice 2005 | Tango Carlos Saura | The Az 2005
V.A. - Saura (2005) Torrent Download with keygen, crack, serial, dvdrip, hdrip, HD, 720p, 1024p, 2016, 2015