Most Beautiful Island 2017 dvdrip reloj en línea | MP3skull | Charles J. Conrad

John Lee Hooker - Blues Is The Healer (2005) (box set) REPOST

New Download Links
Speed
 kbps
 kbps
 kbps

John Lee Hooker - Blues Is The Healer (2005) (box set)
blues | 10cd | EAC Rip | Ape + Cue + Log | covers
Membran Music 222916-321 | mono | rec: 1948-69 | 1500Mb

This box set reissue of the "John Lee Hooker – Portrait 10 cd (Past Perfect 2001)". Overall, the sound is very good with a few songs on the first couple of discs sounding really rough. The first 8 discs are early solo Hooker with the ocassional backing guitar or piano. Disc 9 sounds like Veejay recordings and the 10th is a live concert. Hooker mentions Lowell Fulsom and SP Leary but there is no live audience response. Good stuff though.The only drawback is that there are no liner notes at all. But if you want to fill out your collection with some great early stuff, this will be a great addition to your collection. Boogie on, Johnny Lee!

Track listing
cd1
1. Leavin' Chicago (3:53)
2. Wednesday Evening Blues (4:00)
3. My First Wife Left Me (3:36)
4. Sally Mae (3:14)
5. War Is Over (Goodbye California) (2:46)
6. She Was in Chicago (2:59)
7. Boogie Chillen (3:10)
8. Henry's Swing Club (3:12)
9. Stomp Boogie (3:10)
10. Who's Been Jiving You (3:11)
11. Black Man Blues (3:32)
12. Shake Your Boogie (3:03)
13. Poor Slim (3:28)
14. Mercy Blues (3:17)
15. Boogie Woogie (3:32)
16. Helpless Blues (3:37)

cd2
1. Good Business (3:32)
2. Goin' Mad Blues (3:45)
3. Morning Blues (3:02)
4. Boogie Awhile (2:38)
5. Tuesday Evening Blues (3:03)
6. Weeping Willow Boogie (2:48)
7. Hobo Blues (3:01)
8. Miss Lorraine (3:01)
9. Do the Boogie (3:13)
10. Do the Boogie (Alt) (3:11)
11. 609 Boogie (3:15)
12. Road Trouble (3:09)
13. Christmas Time Blues (3:17)
14. Drifting From Door To Door (2:59)
15. Hobo Blues (3:01)
16. Howlin' Wolf (2:35)

cd3
1. Crawling Kingsnake (3:00)
2. Alberta (3:05)
3. Wayne County Ramblin' Blues (3:10)
4. Talkin' Boogie (3:06)
5. I Love To Boogie (3:07)
6. Graveyard Blues (2:48)
7. Must I Wait Till Your Man Has Gone (3:04)
8. Cotton Pickin' Boogie (2:45)
9. Hoogie Boogie (2:55)
10. Huckle Up Baby (2:47)
11. Whistlin' And Moanin' Blues (3:09)
12. Momma Poppa Blues (2:56)
13. Burning Hell (2:42)
14. Sailing Blues (2:47)
15. Black Cat Blues (2:59)

cd4
1. Miss Rosie Mae (3:00)
2. Highway Blues (3:05)
3. Don't Go Baby (3:12)
4. The Numbers (3:07)
5. Weeping Willow Blues (2:49)
6. Forgive Me (3:12)
7. Howlin' Wolf (2:37)
8. Playing the Races (3:15)
9. Wednesday Evening (2:57)
10. Let Your Daddy Ride (2:38)
11. Queen Bee (2:34)
12. I'm In The Mood (3:07)
13. Tease Me Baby (3:02)
14. Turn Over A New Leaf (3:07)
15. Women In My Life (3:10)

cd5
1. House Rent Boogie (2:44)
2. Wandering Blues (3:00)
3. Questionnaire Blues (3:28)
4. Real Gone Gal (3:15)
5. Feed Her All Night (2:17)
6. My Daddy Was A Jockey (3:19)
7. Little Boy Blue (2:36)
8. How Long Must I Be Your Slave (3:13)
9. Ground Hog (2:40)
10. Mean Old Train (3:10)
11. Catfish (3:09)
12. Do My Baby Think Of Me (2:53)
13. Three Long Year's Ago (3:04)
14. Strike Blues (2:38)
15. Grinder Man (3:08)

cd6
1. Walkin' This Highway (2:18)
2. Four Women In My Life (3:13)
3. I Need Lovin' (2:56)
4. Find Me A Woman (2:40)
5. Mad Man Blues (2:45)
6. Hey Boogie (2:15)
7. Louise (3:05)
8. High Priced Woman (2:44)
9. Union Station Blues (2:57)
10. Ground Hog Blues (2:58)
11. Leave My Wife Alone (2:48)
12. Ramblin' ?y Myself (3:20)
13. Dreamin' Blues (3:07)
14. Just Me And My Telephone (3:22)
15. Walkin' The Boogie (2:34)
16. Sugar Mama (3:11)

cd7
1. Please Don't Go (2:30)
2. I Don't Want Your Money (3:04)
3. Hey Baby (3:29)
4. Bluebird (3:02)
5. Walkin' the Boogie (2:54)
6. Love Blues (3:00)
7. Lonely Boy Boogie (3:52)
8. Apologize (3:04)
9. The Journey (4:21)
10. Worried Life Blues (3:06)
11. Down at the Landing (2:55)
12. You Have Two Hearts (3:16)
13. Blues For Big Town (3:12)
14. Women and Money (2:57)
15. Rock House Boogie (2:50)

cd8
1. Too Much Boogie (2:59)
2. Need Somebody (2:59)
3. Please Take Me Back (2:58)
4. Gotta Boogie (2:24)
5. Stuttering Blues (2:17)
6. Pouring Down Rain (2:35)
7. Love My Baby (2:37)
8. Misbelieving Baby (2:31)
9. Wobbling Baby (2:38)
10. Goin' South (3:09)
11. My Baby Don't Love Me (3:02)
12. I Ain't Got Nobody (2:29)
13. Real Real Gone (2:26)
14. Guitar Lovin' Man (2:40)
15. Blue Monday (2:31)
16. My Baby Put Me Down (2:34)

cd9
1. Boom, Boom (2:29)
2. I Want To Hug You (2:54)
3. House Rent Boogie (4:00)
4. Want Ad Blues (2:20)
5. I'm So Excited (2:53)
6. Hard Headed Woman (2:29)
7. I Wanna Walk (2:13)
8. Onions (2:09)
9. What Do You Say (2:29)
10. Keep Your Hands To Yourself (2:19)
11. Send Me Your Pillow (2:24)
12. She Shot Me Down (2:50)
13. I Want To Shout (2:23)
14. I'm Leaving (Baby) (2:09)

cd10
1. Baby Baby (4:29)
2. I Feel Good (4:10)
3. Going Home (3:07)
4. We Are Cooking (3:41)
5. Looking Back Over My Day (4:35)
6. Dazie Mae (4:27)
7. Stand Back (5:02)
8. Call It The Night (6:26)
9. Roll And Rumble (5:09)
10. Bottle Of Wine (3:57)
11. Baby Don't Do Me Wrong (5:02)

eac logs:

Exact Audio Copy V0.99 prebeta 4 from 23. January 2008

EAC extraction logfile from 4. October 2009, 22:29

John Lee Hooker / Blues Is The Healer CD 1

Used drive : Optiarc DVD RW AD-5200A Adapter: 1 ID: 1

Read mode : Secure
Utilize accurate stream : Yes
Defeat audio cache : Yes
Make use of C2 pointers : No

Read offset correction : 48
Overread into Lead-In and Lead-Out : No
Fill up missing offset samples with silence : Yes
Delete leading and trailing silent blocks : No
Null samples used in CRC calculations : Yes
Used interface : Native Win32 interface for Win NT & 2000

Used output format : Internal WAV Routines
Sample format : 44.100 Hz; 16 Bit; Stereo TOC of the extracted CD

Track | Start | Length | Start sector | End sector
---------------------------------------------------------
1 | 0:00.00 | 3:53.68 | 0 | 17542
2 | 3:53.68 | 4:00.63 | 17543 | 35605
3 | 7:54.56 | 3:36.43 | 35606 | 51848
4 | 11:31.24 | 3:14.12 | 51849 | 66410
5 | 14:45.36 | 2:46.45 | 66411 | 78905
6 | 17:32.06 | 2:59.73 | 78906 | 92403
7 | 20:32.04 | 3:10.65 | 92404 | 106718
8 | 23:42.69 | 3:12.30 | 106719 | 121148
9 | 26:55.24 | 3:10.17 | 121149 | 135415
10 | 30:05.41 | 3:11.24 | 135416 | 149764
11 | 33:16.65 | 3:32.40 | 149765 | 165704
12 | 36:49.30 | 3:03.50 | 165705 | 179479
13 | 39:53.05 | 3:28.19 | 179480 | 195098
14 | 43:21.24 | 3:17.53 | 195099 | 209926
15 | 46:39.02 | 3:32.54 | 209927 | 225880
16 | 50:11.56 | 3:37.74 | 225881 | 242229 Range status and errors

Selected range

Filename D:Audio ProjectsJohn Lee Hooker - Blues Is The Healer 10 CDBlues Is The Healer CD 01John Lee Hooker - Blues Is The Healer CD 1.wav

Peak level 100.0 %
Range quality 100.0 %
Test CRC 71748B95
Copy CRC 71748B95
Copy OK

No errors occurred


AccurateRip summary

Track 1 accurately ripped (confidence 3) [098BF794]
Track 2 accurately ripped (confidence 3) [71CF8E2B]
Track 3 accurately ripped (confidence 3) [C6196776]
Track 4 accurately ripped (confidence 3) [223A0338]
Track 5 accurately ripped (confidence 3) [C1A8A226]
Track 6 accurately ripped (confidence 3) [169FECFF]
Track 7 accurately ripped (confidence 3) [4552CEAF]
Track 8 accurately ripped (confidence 3) [BFEA40C1]
Track 9 accurately ripped (confidence 3) [F29669AD]
Track 10 accurately ripped (confidence 3) [CB17CD7E]
Track 11 accurately ripped (confidence 3) [BA569D0A]
Track 12 accurately ripped (confidence 3) [2FBEF7C1]
Track 13 accurately ripped (confidence 3) [7CCE1982]
Track 14 accurately ripped (confidence 3) [720BF013]
Track 15 accurately ripped (confidence 3) [BF2ACD75]
Track 16 accurately ripped (confidence 3) [DFBD6CEB]

All tracks accurately ripped

End of status report

---
Exact Audio Copy V0.99 prebeta 4 from 23. January 2008

EAC extraction logfile from 4. October 2009, 21:51

John Lee Hooker / Blues Is The Healer CD 2

Used drive : Optiarc DVD RW AD-5200A Adapter: 1 ID: 1

Read mode : Secure
Utilize accurate stream : Yes
Defeat audio cache : Yes
Make use of C2 pointers : No

Read offset correction : 48
Overread into Lead-In and Lead-Out : No
Fill up missing offset samples with silence : Yes
Delete leading and trailing silent blocks : No
Null samples used in CRC calculations : Yes
Used interface : Native Win32 interface for Win NT & 2000

Used output format : Internal WAV Routines
Sample format : 44.100 Hz; 16 Bit; Stereo TOC of the extracted CD

Track | Start | Length | Start sector | End sector
---------------------------------------------------------
1 | 0:00.00 | 3:32.62 | 0 | 15961
2 | 3:32.62 | 3:45.03 | 15962 | 32839
3 | 7:17.65 | 3:02.06 | 32840 | 46495
4 | 10:19.71 | 2:38.19 | 46496 | 58364
5 | 12:58.15 | 3:03.51 | 58365 | 72140
6 | 16:01.66 | 2:48.49 | 72141 | 84789
7 | 18:50.40 | 3:01.54 | 84790 | 98418
8 | 21:52.19 | 3:01.61 | 98419 | 112054
9 | 24:54.05 | 3:13.23 | 112055 | 126552
10 | 28:07.28 | 3:11.64 | 126553 | 140941
11 | 31:19.17 | 3:15.18 | 140942 | 155584
12 | 34:34.35 | 3:09.65 | 155585 | 169824
13 | 37:44.25 | 3:17.17 | 169825 | 184616
14 | 41:01.42 | 2:59.51 | 184617 | 198092
15 | 44:01.18 | 3:01.59 | 198093 | 211726
16 | 47:03.02 | 2:35.60 | 211727 | 223411 Range status and errors

Selected range

Filename D:Audio ProjectsJohn Lee Hooker - Blues Is The Healer 10 CDBlues Is The Healer CD 02John Lee Hooker - Blues Is The Healer CD 2.wav

Peak level 99.9 %
Range quality 100.0 %
Test CRC A26E18D2
Copy CRC A26E18D2
Copy OK

No errors occurred


AccurateRip summary

Track 1 accurately ripped (confidence 3) [91DD4671]
Track 2 accurately ripped (confidence 3) [7BCD4E0E]
Track 3 accurately ripped (confidence 3) [4EF31B41]
Track 4 accurately ripped (confidence 3) [5D907FA7]
Track 5 accurately ripped (confidence 3) [FA17162B]
Track 6 accurately ripped (confidence 3) [10B0DCB8]
Track 7 accurately ripped (confidence 3) [D591165A]
Track 8 accurately ripped (confidence 3) [CD76C936]
Track 9 accurately ripped (confidence 3) [8D1412D8]
Track 10 accurately ripped (confidence 3) [074E03EE]
Track 11 accurately ripped (confidence 3) [D635AB7B]
Track 12 accurately ripped (confidence 3) [CB6F20C5]
Track 13 accurately ripped (confidence 3) [4BF48CBD]
Track 14 accurately ripped (confidence 3) [1981A03E]
Track 15 accurately ripped (confidence 3) [50F1C090]
Track 16 accurately ripped (confidence 3) [BA730679]

All tracks accurately ripped

End of status report
---
Exact Audio Copy V0.99 prebeta 4 from 23. January 2008

EAC extraction logfile from 4. October 2009, 21:09

John Lee Hooker / Blues Is The Healer CD 3

Used drive : Optiarc DVD RW AD-5200A Adapter: 1 ID: 1

Read mode : Secure
Utilize accurate stream : Yes
Defeat audio cache : Yes
Make use of C2 pointers : No

Read offset correction : 48
Overread into Lead-In and Lead-Out : No
Fill up missing offset samples with silence : Yes
Delete leading and trailing silent blocks : No
Null samples used in CRC calculations : Yes
Used interface : Native Win32 interface for Win NT & 2000

Used output format : Internal WAV Routines
Sample format : 44.100 Hz; 16 Bit; Stereo TOC of the extracted CD

Track | Start | Length | Start sector | End sector
---------------------------------------------------------
1 | 0:00.00 | 3:00.32 | 0 | 13531
2 | 3:00.32 | 3:05.69 | 13532 | 27475
3 | 6:06.26 | 3:10.33 | 27476 | 41758
4 | 9:16.59 | 3:06.48 | 41759 | 55756
5 | 12:23.32 | 3:07.08 | 55757 | 69789
6 | 15:30.40 | 2:48.14 | 69790 | 82403
7 | 18:18.54 | 3:04.42 | 82404 | 96245
8 | 21:23.21 | 2:45.08 | 96246 | 108628
9 | 24:08.29 | 2:55.66 | 108629 | 121819
10 | 27:04.20 | 2:47.70 | 121820 | 134414
11 | 29:52.15 | 3:09.72 | 134415 | 148661
12 | 33:02.12 | 2:56.48 | 148662 | 161909
13 | 35:58.60 | 2:42.35 | 161910 | 174094
14 | 38:41.20 | 2:47.51 | 174095 | 186670
15 | 41:28.71 | 2:59.50 | 186671 | 200145 Range status and errors

Selected range

Filename D:Audio ProjectsJohn Lee Hooker - Blues Is The Healer 10 CDBlues Is The Healer CD 03John Lee Hooker - Blues Is The Healer CD 3.wav

Peak level 100.0 %
Range quality 100.0 %
Test CRC 246CF453
Copy CRC 246CF453
Copy OK

No errors occurred


AccurateRip summary

Track 1 accurately ripped (confidence 3) [930D2363]
Track 2 accurately ripped (confidence 3) [F931E6BB]
Track 3 accurately ripped (confidence 3) [87365E0C]
Track 4 accurately ripped (confidence 3) [B4246B62]
Track 5 accurately ripped (confidence 3) [86E72F7F]
Track 6 accurately ripped (confidence 3) [D7A8DD4F]
Track 7 accurately ripped (confidence 3) [40117F75]
Track 8 accurately ripped (confidence 3) [39E3E862]
Track 9 accurately ripped (confidence 3) [60C8E489]
Track 10 accurately ripped (confidence 3) [58B32FB5]
Track 11 accurately ripped (confidence 3) [9A744000]
Track 12 accurately ripped (confidence 3) [16212108]
Track 13 accurately ripped (confidence 3) [79470783]
Track 14 accurately ripped (confidence 3) [305AB7EC]
Track 15 accurately ripped (confidence 3) [0DBD5D12]

All tracks accurately ripped

End of status report
----
Exact Audio Copy V0.99 prebeta 4 from 23. January 2008

EAC extraction logfile from 4. October 2009, 19:56

John Lee Hooker / Blues Is The Healer CD 4

Used drive : Optiarc DVD RW AD-5200A Adapter: 1 ID: 1

Read mode : Secure
Utilize accurate stream : Yes
Defeat audio cache : Yes
Make use of C2 pointers : No

Read offset correction : 48
Overread into Lead-In and Lead-Out : No
Fill up missing offset samples with silence : Yes
Delete leading and trailing silent blocks : No
Null samples used in CRC calculations : Yes
Used interface : Native Win32 interface for Win NT & 2000

Used output format : Internal WAV Routines
Sample format : 44.100 Hz; 16 Bit; Stereo TOC of the extracted CD

Track | Start | Length | Start sector | End sector
---------------------------------------------------------
1 | 0:00.00 | 3:00.34 | 0 | 13533
2 | 3:00.34 | 3:05.38 | 13534 | 27446
3 | 6:05.72 | 3:12.61 | 27447 | 41907
4 | 9:18.58 | 3:07.42 | 41908 | 55974
5 | 12:26.25 | 2:49.36 | 55975 | 68685
6 | 15:15.61 | 3:12.49 | 68686 | 83134
7 | 18:28.35 | 2:37.72 | 83135 | 94981
8 | 21:06.32 | 3:15.18 | 94982 | 109624
9 | 24:21.50 | 2:57.02 | 109625 | 122901
10 | 27:18.52 | 2:38.48 | 122902 | 134799
11 | 29:57.25 | 2:34.69 | 134800 | 146418
12 | 32:32.19 | 3:07.07 | 146419 | 160450
13 | 35:39.26 | 3:02.26 | 160451 | 174126
14 | 38:41.52 | 3:07.71 | 174127 | 188222
15 | 41:49.48 | 3:10.57 | 188223 | 202529 Range status and errors

Selected range

Filename D:Audio ProjectsJohn Lee Hooker - Blues Is The Healer 10 CDBlues Is The Healer CD 04John Lee Hooker - Blues Is The Healer CD 4.wav

Peak level 78.7 %
Range quality 100.0 %
Test CRC ABA34487
Copy CRC ABA34487
Copy OK

No errors occurred


AccurateRip summary

Track 1 accurately ripped (confidence 3) [7EBF82DF]
Track 2 accurately ripped (confidence 3) [5A3A6703]
Track 3 accurately ripped (confidence 3) [4897D97D]
Track 4 accurately ripped (confidence 3) [6A6ED253]
Track 5 accurately ripped (confidence 3) [CBE43096]
Track 6 accurately ripped (confidence 3) [4BCFED8F]
Track 7 accurately ripped (confidence 3) [433AA894]
Track 8 accurately ripped (confidence 3) [CDA1801F]
Track 9 accurately ripped (confidence 3) [9D2878BE]
Track 10 accurately ripped (confidence 3) [E952FEAA]
Track 11 accurately ripped (confidence 3) [031D40AF]
Track 12 accurately ripped (confidence 3) [0D1B7620]
Track 13 accurately ripped (confidence 3) [C8896FDF]
Track 14 accurately ripped (confidence 3) [9715AB05]
Track 15 accurately ripped (confidence 3) [733878D5]

All tracks accurately ripped

End of status report
----------
Exact Audio Copy V0.99 prebeta 4 from 23. January 2008

EAC extraction logfile from 4. October 2009, 19:02

John Lee Hooker / Blues Is The Healer CD 5

Used drive : Optiarc DVD RW AD-5200A Adapter: 1 ID: 1

Read mode : Secure
Utilize accurate stream : Yes
Defeat audio cache : Yes
Make use of C2 pointers : No

Read offset correction : 48
Overread into Lead-In and Lead-Out : No
Fill up missing offset samples with silence : Yes
Delete leading and trailing silent blocks : No
Null samples used in CRC calculations : Yes
Used interface : Native Win32 interface for Win NT & 2000

Used output format : Internal WAV Routines
Sample format : 44.100 Hz; 16 Bit; Stereo TOC of the extracted CD

Track | Start | Length | Start sector | End sector
---------------------------------------------------------
1 | 0:00.00 | 2:44.38 | 0 | 12337
2 | 2:44.38 | 3:00.41 | 12338 | 25878
3 | 5:45.04 | 3:28.27 | 25879 | 41505
4 | 9:13.31 | 3:15.36 | 41506 | 56166
5 | 12:28.67 | 2:17.45 | 56167 | 66486
6 | 14:46.37 | 3:19.07 | 66487 | 81418
7 | 18:05.44 | 2:36.16 | 81419 | 93134
8 | 20:41.60 | 3:13.59 | 93135 | 107668
9 | 23:55.44 | 2:40.49 | 107669 | 119717
10 | 26:36.18 | 3:10.55 | 119718 | 134022
11 | 29:46.73 | 3:09.49 | 134023 | 148246
12 | 32:56.47 | 2:53.66 | 148247 | 161287
13 | 35:50.38 | 3:04.73 | 161288 | 175160
14 | 38:55.36 | 2:38.40 | 175161 | 187050
15 | 41:34.01 | 3:08.19 | 187051 | 201169 Range status and errors

Selected range

Filename D:Audio ProjectsJohn Lee Hooker - Blues Is The Healer 10 CDBlues Is The Healer CD 05John Lee Hooker - Blues Is The Healer CD 5.wav

Peak level 100.0 %
Range quality 100.0 %
Test CRC 9C2CE68D
Copy CRC 9C2CE68D
Copy OK

No errors occurred


AccurateRip summary

Track 1 accurately ripped (confidence 3) [BE10A027]
Track 2 accurately ripped (confidence 3) [E60ABCEE]
Track 3 accurately ripped (confidence 3) [48396A54]
Track 4 accurately ripped (confidence 3) [EC69DF46]
Track 5 accurately ripped (confidence 3) [90659FBD]
Track 6 accurately ripped (confidence 3) [3C8270CB]
Track 7 accurately ripped (confidence 3) [7F8E3473]
Track 8 accurately ripped (confidence 3) [28BBB778]
Track 9 accurately ripped (confidence 3) [A5F8F29E]
Track 10 accurately ripped (confidence 3) [A3F1499C]
Track 11 accurately ripped (confidence 3) [B15EAF7B]
Track 12 accurately ripped (confidence 3) [C8AF58C2]
Track 13 accurately ripped (confidence 3) [508371B5]
Track 14 accurately ripped (confidence 3) [541FEB03]
Track 15 accurately ripped (confidence 3) [07A4852F]

All tracks accurately ripped

End of status report

---
Exact Audio Copy V0.99 prebeta 4 from 23. January 2008

EAC extraction logfile from 4. October 2009, 14:31

John Lee Hooker / Blues Is The Healer CD 6

Used drive : HL-DT-STDVD-ROM GDR8163B Adapter: 1 ID: 0

Read mode : Secure
Utilize accurate stream : Yes
Defeat audio cache : Yes
Make use of C2 pointers : No

Read offset correction : 102
Overread into Lead-In and Lead-Out : No
Fill up missing offset samples with silence : Yes
Delete leading and trailing silent blocks : No
Null samples used in CRC calculations : Yes
Used interface : Native Win32 interface for Win NT & 2000

Used output format : Internal WAV Routines
Sample format : 44.100 Hz; 16 Bit; Stereo TOC of the extracted CD

Track | Start | Length | Start sector | End sector
---------------------------------------------------------
1 | 0:00.00 | 2:18.69 | 0 | 10418
2 | 2:18.69 | 3:13.17 | 10419 | 24910
3 | 5:32.11 | 2:56.12 | 24911 | 38122
4 | 8:28.23 | 2:40.51 | 38123 | 50173
5 | 11:08.74 | 2:45.60 | 50174 | 62608
6 | 13:54.59 | 2:15.68 | 62609 | 72801
7 | 16:10.52 | 3:05.26 | 72802 | 86702
8 | 19:16.03 | 2:44.08 | 86703 | 99010
9 | 22:00.11 | 2:57.52 | 99011 | 112337
10 | 24:57.63 | 2:58.56 | 112338 | 125743
11 | 27:56.44 | 2:48.14 | 125744 | 138357
12 | 30:44.58 | 3:20.45 | 138358 | 153402
13 | 34:05.28 | 3:07.52 | 153403 | 167479
14 | 37:13.05 | 3:22.30 | 167480 | 182659
15 | 40:35.35 | 2:34.66 | 182660 | 194275
16 | 43:10.26 | 3:11.29 | 194276 | 208629 Range status and errors

Selected range

Filename D:Audio ProjectsJohn Lee Hooker - Blues Is The Healer 10 CDBlues Is The Healer CD 06John Lee Hooker - Blues Is The Healer CD 6.wav

Peak level 99.8 %
Range quality 99.9 %
Test CRC 6F3EAC33
Copy CRC 6F3EAC33
Copy OK

No errors occurred

End of status report

---------
Exact Audio Copy V0.99 prebeta 4 from 23. January 2008

EAC extraction logfile from 4. October 2009, 12:38

John Lee Hooker / Blues Is The Healer CD 7

Used drive : HL-DT-STDVD-ROM GDR8163B Adapter: 1 ID: 0

Read mode : Secure
Utilize accurate stream : Yes
Defeat audio cache : Yes
Make use of C2 pointers : No

Read offset correction : 102
Overread into Lead-In and Lead-Out : No
Fill up missing offset samples with silence : Yes
Delete leading and trailing silent blocks : No
Null samples used in CRC calculations : Yes
Used interface : Native Win32 interface for Win NT & 2000

Used output format : Internal WAV Routines
Sample format : 44.100 Hz; 16 Bit; Stereo TOC of the extracted CD

Track | Start | Length | Start sector | End sector
---------------------------------------------------------
1 | 0:00.00 | 2:30.23 | 0 | 11272
2 | 2:30.23 | 3:04.47 | 11273 | 25119
3 | 5:34.70 | 3:29.15 | 25120 | 40809
4 | 9:04.10 | 3:02.25 | 40810 | 54484
5 | 12:06.35 | 2:54.65 | 54485 | 67599
6 | 15:01.25 | 3:00.30 | 67600 | 81129
7 | 18:01.55 | 3:52.50 | 81130 | 98579
8 | 21:54.30 | 3:04.42 | 98580 | 112421
9 | 24:58.72 | 4:21.07 | 112422 | 132003
10 | 29:20.04 | 3:06.12 | 132004 | 145965
11 | 32:26.16 | 2:55.72 | 145966 | 159162
12 | 35:22.13 | 3:16.42 | 159163 | 173904
13 | 38:38.55 | 3:12.06 | 173905 | 188310
14 | 41:50.61 | 2:57.07 | 188311 | 201592
15 | 44:47.68 | 2:50.08 | 201593 | 214350 Range status and errors

Selected range

Filename D:Audio ProjectsJohn Lee Hooker - Blues Is The Healer 10 CDBlues Is The Healer CD 07John Lee Hooker - Blues Is The Healer CD 7.wav

Peak level 100.0 %
Range quality 100.0 %
Test CRC 20F3AEB0
Copy CRC 20F3AEB0
Copy OK

No errors occurred

End of status report

-------
Exact Audio Copy V0.99 prebeta 4 from 23. January 2008

EAC extraction logfile from 4. October 2009, 11:27

John Lee Hooker / Blues Is the Healer CD 8

Used drive : Optiarc DVD RW AD-5200A Adapter: 1 ID: 1

Read mode : Secure
Utilize accurate stream : Yes
Defeat audio cache : Yes
Make use of C2 pointers : No

Read offset correction : 48
Overread into Lead-In and Lead-Out : No
Fill up missing offset samples with silence : Yes
Delete leading and trailing silent blocks : No
Null samples used in CRC calculations : Yes
Used interface : Native Win32 interface for Win NT & 2000

Used output format : Internal WAV Routines
Sample format : 44.100 Hz; 16 Bit; Stereo TOC of the extracted CD

Track | Start | Length | Start sector | End sector
---------------------------------------------------------
1 | 0:00.00 | 2:59.46 | 0 | 13470
2 | 2:59.46 | 2:59.16 | 13471 | 26911
3 | 5:58.62 | 2:58.43 | 26912 | 40304
4 | 8:57.30 | 2:24.08 | 40305 | 51112
5 | 11:21.38 | 2:17.46 | 51113 | 61433
6 | 13:39.09 | 2:35.73 | 61434 | 73131
7 | 16:15.07 | 2:37.56 | 73132 | 84962
8 | 18:52.63 | 2:31.58 | 84963 | 96345
9 | 21:24.46 | 2:38.66 | 96346 | 108261
10 | 24:03.37 | 3:09.24 | 108262 | 122460
11 | 27:12.61 | 3:02.10 | 122461 | 136120
12 | 30:14.71 | 2:29.45 | 136121 | 147340
13 | 32:44.41 | 2:26.14 | 147341 | 158304
14 | 35:10.55 | 2:41.01 | 158305 | 170380
15 | 37:51.56 | 2:31.18 | 170381 | 181723
16 | 40:22.74 | 2:34.19 | 181724 | 193292 Range status and errors

Selected range

Filename D:Audio ProjectsJohn Lee Hooker - Blues Is The Healer 10 CDBlues Is The Healer CD 08John Lee Hooker - Blues Is the Healer CD 8.wav

Peak level 100.0 %
Range quality 100.0 %
Test CRC 74191959
Copy CRC 74191959
Copy OK

No errors occurred

End of status report

--
Exact Audio Copy V0.99 prebeta 4 from 23. January 2008

EAC extraction logfile from 4. October 2009, 10:19

John Lee Hooker / Blues Is the Healer CD 9

Used drive : HL-DT-STDVD-ROM GDR8163B Adapter: 1 ID: 0

Read mode : Secure
Utilize accurate stream : Yes
Defeat audio cache : Yes
Make use of C2 pointers : No

Read offset correction : 102
Overread into Lead-In and Lead-Out : No
Fill up missing offset samples with silence : Yes
Delete leading and trailing silent blocks : No
Null samples used in CRC calculations : Yes
Used interface : Native Win32 interface for Win NT & 2000

Used output format : Internal WAV Routines
Sample format : 44.100 Hz; 16 Bit; Stereo TOC of the extracted CD

Track | Start | Length | Start sector | End sector
---------------------------------------------------------
1 | 0:00.00 | 2:29.06 | 0 | 11180
2 | 2:29.06 | 2:54.57 | 11181 | 24287
3 | 5:23.63 | 4:00.09 | 24288 | 42296
4 | 9:23.72 | 2:20.40 | 42297 | 52836
5 | 11:44.37 | 2:54.00 | 52837 | 65886
6 | 14:38.37 | 2:29.61 | 65887 | 77122
7 | 17:08.23 | 2:13.61 | 77123 | 87158
8 | 19:22.09 | 2:09.21 | 87159 | 96854
9 | 21:31.30 | 2:29.22 | 96855 | 108051
10 | 24:00.52 | 2:19.33 | 108052 | 118509
11 | 26:20.10 | 2:24.62 | 118510 | 129371
12 | 28:44.72 | 2:50.49 | 129372 | 142170
13 | 31:35.46 | 2:23.60 | 142171 | 152955
14 | 33:59.31 | 2:09.23 | 152956 | 162653 Range status and errors

Selected range

Filename D:Audio ProjectsJohn Lee Hooker - Blues Is The Healer 10 CDBlues Is The Healer CD 09John Lee Hooker - Blues Is the Healer CD 9.wav

Peak level 100.0 %
Range quality 99.9 %
Test CRC BC05814F
Copy CRC BC05814F
Copy OK

No errors occurred

End of status report
----
Exact Audio Copy V0.99 prebeta 4 from 23. January 2008

EAC extraction logfile from 3. October 2009, 22:50

John Lee Hooker / Blues Is the Healer CD 10

Used drive : Optiarc DVD RW AD-5200A Adapter: 1 ID: 1

Read mode : Secure
Utilize accurate stream : Yes
Defeat audio cache : Yes
Make use of C2 pointers : No

Read offset correction : 48
Overread into Lead-In and Lead-Out : No
Fill up missing offset samples with silence : Yes
Delete leading and trailing silent blocks : No
Null samples used in CRC calculations : Yes
Used interface : Native Win32 interface for Win NT & 2000

Used output format : Internal WAV Routines
Sample format : 44.100 Hz; 16 Bit; Stereo TOC of the extracted CD

Track | Start | Length | Start sector | End sector
---------------------------------------------------------
1 | 0:00.00 | 4:29.57 | 0 | 20231
2 | 4:29.57 | 4:10.31 | 20232 | 39012
3 | 8:40.13 | 3:07.65 | 39013 | 53102
4 | 11:48.03 | 3:41.25 | 53103 | 69702
5 | 15:29.28 | 4:35.19 | 69703 | 90346
6 | 20:04.47 | 4:27.14 | 90347 | 110385
7 | 24:31.61 | 5:02.30 | 110386 | 133065
8 | 29:34.16 | 6:26.47 | 133066 | 162062
9 | 36:00.63 | 5:09.54 | 162063 | 185291
10 | 41:10.42 | 3:57.37 | 185292 | 203103
11 | 45:08.04 | 5:03.00 | 203104 | 225828 Range status and errors

Selected range

Filename D:Audio ProjectsJohn Lee Hooker - Blues Is The Healer 10 CDBlues Is The Healer CD 10John Lee Hooker - Blues Is the Healer CD 10.wav

Peak level 100.0 %
Range quality 100.0 %
Test CRC 6A069E1B
Copy CRC 6A069E1B
Copy OK

No errors occurred

End of status report


cuetools reports:

[CUETools log; Date: 2013.10.07. 15:01:57; Version: 2.1.4]
[CTDB TOCID: Wqco_FB8R7eEY2ZqZMlgVeIsJKI-] found.
Track | CTDB Status
1 | (3/3) Accurately ripped
2 | (3/3) Accurately ripped
3 | (3/3) Accurately ripped
4 | (3/3) Accurately ripped
5 | (3/3) Accurately ripped
6 | (3/3) Accurately ripped
7 | (3/3) Accurately ripped
8 | (3/3) Accurately ripped
9 | (3/3) Accurately ripped
10 | (3/3) Accurately ripped
11 | (3/3) Accurately ripped
12 | (3/3) Accurately ripped
13 | (3/3) Accurately ripped
14 | (3/3) Accurately ripped
15 | (3/3) Accurately ripped
16 | (3/3) Accurately ripped
[AccurateRip ID: 001fa5ea-01789b45-d50c9d10] found.
Track [ CRC | V2 ] Status
01 [098bf794|b77f9346] (07+05/12) Accurately ripped
02 [71cf8e2b|5523979b] (07+05/12) Accurately ripped
03 [c6196776|1560d9d4] (07+05/12) Accurately ripped
04 [223a0338|8869dbfa] (07+05/14) Accurately ripped
05 [c1a8a226|ae6d3ade] (07+05/12) Accurately ripped
06 [169fecff|ac131c90] (07+05/12) Accurately ripped
07 [4552ceaf|b78fc133] (07+05/14) Accurately ripped
08 [bfea40c1|070e6388] (07+05/12) Accurately ripped
09 [f29669ad|192a5c06] (07+05/12) Accurately ripped
10 [cb17cd7e|7a4eaa77] (07+05/12) Accurately ripped
11 [ba569d0a|00762cfb] (07+05/12) Accurately ripped
12 [2fbef7c1|efc4c32d] (07+05/12) Accurately ripped
13 [7cce1982|3a4d0e97] (07+05/12) Accurately ripped
14 [720bf013|5454c91e] (07+05/12) Accurately ripped
15 [bf2acd75|2ffc3059] (07+05/12) Accurately ripped
16 [dfbd6ceb|7e93c4e8] (07+05/12) Accurately ripped
Offsetted by -664:
01 [a16012f5] (00/12) No match
02 [01ee2c84] (00/12) No match
03 [75532d56] (00/12) No match
04 [c83ca0d3] (00/14) No match (V2 was not tested)
05 [706b6e8a] (00/12) No match
06 [5287d9ce] (00/12) No match
07 [2a26334e] (00/14) No match (V2 was not tested)
08 [c0d55747] (00/12) No match
09 [0e48a44f] (00/12) No match
10 [30d5ba04] (00/12) No match
11 [6416dfd2] (00/12) No match
12 [5d83b7a2] (00/12) No match
13 [e8076d6b] (00/12) No match
14 [ccf6977f] (00/12) No match
15 [2ff654d9] (00/12) No match
16 [51875056] (00/12) No match

Track Peak [ CRC32 ] [W/O NULL] [ LOG ]
-- 100,0 [71748B95] [C74A289C] CRC32
01 99,9 [7CCCDF1C] [0D44C856]
02 99,9 [822C50CE] [CF892A57]
03 99,9 [39285CCE] [99F6802A]
04 100,0 [42E8D93C] [E9E14CDB]
05 99,1 [6061A0F9] [F7D9F4FB]
06 99,2 [8DDB8BC7] [634133B7]
07 100,0 [627608A6] [ED79F5A6]
08 99,8 [CC82355B] [04D9076E]
09 98,0 [720EEFB3] [42DA48DF]
10 99,3 [B48EC20F] [1A6C8578]
11 98,5 [9167BCBE] [F5B03844]
12 99,1 [4221C0FC] [54DE4294]
13 98,0 [E5982248] [12BF644D]
14 98,0 [B406FADF] [FB72639E]
15 98,9 [651E59DE] [80506042]
16 98,9 [8D8AE3ED] [38DFE05C]

-----
[CUETools log; Date: 2013.10.04. 12:42:23; Version: 2.1.4]
[CTDB TOCID: DoVF6bhB2VTbx37sOSvKgl4U21k-] found.
Track | CTDB Status
1 | (4/4) Accurately ripped
2 | (4/4) Accurately ripped
3 | (4/4) Accurately ripped
4 | (4/4) Accurately ripped
5 | (4/4) Accurately ripped
6 | (4/4) Accurately ripped
7 | (4/4) Accurately ripped
8 | (4/4) Accurately ripped
9 | (4/4) Accurately ripped
10 | (4/4) Accurately ripped
11 | (4/4) Accurately ripped
12 | (4/4) Accurately ripped
13 | (4/4) Accurately ripped
14 | (4/4) Accurately ripped
15 | (4/4) Accurately ripped
16 | (4/4) Accurately ripped
[AccurateRip ID: 001d7a2e-015fe8ff-df0ba210] found.
Track [ CRC | V2 ] Status
01 [91dd4671|172054b4] (07+05/18) Accurately ripped
02 [7bcd4e0e|44eccc84] (07+05/18) Accurately ripped
03 [4ef31b41|c6671790] (07+05/18) Accurately ripped
04 [5d907fa7|e5884899] (07+05/18) Accurately ripped
05 [fa17162b|800259b2] (07+05/18) Accurately ripped
06 [10b0dcb8|2a3554c4] (07+05/18) Accurately ripped
07 [d591165a|2a8389fb] (07+05/18) Accurately ripped
08 [cd76c936|73e401d2] (07+05/18) Accurately ripped
09 [8d1412d8|fa727d1e] (07+05/18) Accurately ripped
10 [074e03ee|6b22ee60] (07+05/18) Accurately ripped
11 [d635ab7b|acdba2f8] (07+05/18) Accurately ripped
12 [cb6f20c5|2255ecb0] (07+05/18) Accurately ripped
13 [4bf48cbd|54b7d8f2] (07+05/18) Accurately ripped
14 [1981a03e|2c3d625a] (07+05/18) Accurately ripped
15 [50f1c090|b82d2e6b] (07+05/20) Accurately ripped
16 [ba730679|533cee7e] (07+05/18) Accurately ripped
Offsetted by 5:
01 [b0b23d91] (04/18) Accurately ripped
02 [a309d804] (04/18) Accurately ripped
03 [67e4e735] (04/18) Accurately ripped
04 [0c94193d] (04/18) Accurately ripped
05 [a494b3bc] (04/18) Accurately ripped
06 [397da556] (04/18) Accurately ripped
07 [42426676] (04/18) Accurately ripped
08 [a00669b9] (04/18) Accurately ripped
09 [001f7249] (04/18) Accurately ripped
10 [5c44b30e] (04/18) Accurately ripped
11 [03395148] (04/18) Accurately ripped
12 [b04032d7] (04/18) Accurately ripped
13 [a74f2c55] (04/18) Accurately ripped
14 [fecf3db4] (04/18) Accurately ripped
15 [c7aa22fe] (04/20) Accurately ripped
16 [3a5b2cf6] (04/18) Accurately ripped
Offsetted by -664:
01 [271e1fcb] (00/18) No match
02 [bacc233e] (00/18) No match
03 [f7eae7e1] (00/18) No match
04 [607f39d7] (00/18) No match
05 [2286f2f3] (00/18) No match
06 [800f3128] (00/18) No match
07 [d995ee3a] (00/18) No match
08 [c628520e] (00/18) No match
09 [1260f6a0] (00/18) No match
10 [8dbcc4ee] (00/18) No match
11 [e2b7a923] (00/18) No match
12 [7efa8dd5] (00/18) No match
13 [81be8f7d] (00/18) No match
14 [f2d7f16e] (00/18) No match
15 [bae51780] (00/20) No match (V2 was not tested)
16 [2356338d] (00/18) No match
Offsetted by -26:
01 [9ca0cac5] (02/18) Accurately ripped
02 [162c1a42] (02/18) Accurately ripped
03 [33a35d19] (02/18) Accurately ripped
04 [02b0fa9b] (02/18) Accurately ripped
05 [e9f04939] (02/18) Accurately ripped
06 [a2ee631c] (02/18) Accurately ripped
07 [39f70f62] (02/18) Accurately ripped
08 [5358b9c0] (02/18) Accurately ripped
09 [03a5bc26] (02/18) Accurately ripped
10 [b3e4dbae] (00/18) No match (V2 was not tested)
11 [85bc4d51] (02/18) Accurately ripped
12 [bf2ff601] (02/18) Accurately ripped
13 [d750820d] (02/18) Accurately ripped
14 [a4546d72] (02/18) Accurately ripped
15 [e7995a54] (02/20) Accurately ripped
16 [87bbd7ef] (02/18) Accurately ripped

Track Peak [ CRC32 ] [W/O NULL] [ LOG ]
-- 99,9 [A26E18D2] [D510499F] CRC32
01 98,9 [0C940FB5] [AF9725B2]
02 98,9 [F9B8D746] [C6F00D47]
03 98,3 [57760878] [A0959E1B]
04 98,3 [19925F8D] [06DEA6FD]
05 98,3 [158EB3C1] [95985FBB]
06 98,3 [896F72B0] [DFEF2148]
07 98,9 [F380110B] [05FFF8F5]
08 99,9 [B3A09BA4] [F8A4C30B]
09 99,5 [75A9F702] [18FC3DF9]
10 98,3 [7252F4F4] [AD909662]
11 99,0 [085C49F3] [BC010DA9]
12 98,6 [F14BB753] [97D82F4C]
13 99,1 [55CC3B48] [18375668]
14 98,9 [1415AEBE] [7C611A63]
15 98,4 [8B492E40] [A95C9702]
16 99,0 [18FA6CC1] [1B0434DB]

---
[CUETools log; Date: 2013.10.07. 15:06:03; Version: 2.1.4]
[CTDB TOCID: oTrW.yIhCdHiBHhsRlVRIQWoqzo-] found.
Track | CTDB Status
1 | (4/4) Accurately ripped
2 | (4/4) Accurately ripped
3 | (4/4) Accurately ripped
4 | (4/4) Accurately ripped
5 | (4/4) Accurately ripped
6 | (4/4) Accurately ripped
7 | (4/4) Accurately ripped
8 | (4/4) Accurately ripped
9 | (4/4) Accurately ripped
10 | (4/4) Accurately ripped
11 | (4/4) Accurately ripped
12 | (4/4) Accurately ripped
13 | (4/4) Accurately ripped
14 | (4/4) Accurately ripped
15 | (4/4) Accurately ripped
[AccurateRip ID: 0018c510-01179945-c60a6c0f] found.
Track [ CRC | V2 ] Status
01 [930d2363|bf89bee3] (06+05/17) Accurately ripped
02 [f931e6bb|8c9bacdc] (07+05/16) Accurately ripped
03 [87365e0c|b8e8db43] (07+05/16) Accurately ripped
04 [b4246b62|61883a3c] (07+05/16) Accurately ripped
05 [86e72f7f|029151c5] (07+05/16) Accurately ripped
06 [d7a8dd4f|764e8ddd] (07+05/16) Accurately ripped
07 [40117f75|0954660f] (07+05/16) Accurately ripped
08 [39e3e862|b73fee2b] (07+05/16) Accurately ripped
09 [60c8e489|26b9e981] (07+05/16) Accurately ripped
10 [58b32fb5|9542d708] (07+05/16) Accurately ripped
11 [9a744000|5acd1397] (07+05/16) Accurately ripped
12 [16212108|399309d4] (07+05/16) Accurately ripped
13 [79470783|3b8ca86c] (07+05/18) Accurately ripped
14 [305ab7ec|016b3ada] (07+05/16) Accurately ripped
15 [0dbd5d12|d9a35d45] (07+05/16) Accurately ripped
Offsetted by 5:
01 [85b6c5fb] (04/17) Accurately ripped
02 [bbdc16c1] (04/16) Accurately ripped
03 [1aea7174] (04/16) Accurately ripped
04 [5f2f25f8] (04/16) Accurately ripped
05 [a9da8153] (04/16) Accurately ripped
06 [40e885d3] (04/16) Accurately ripped
07 [c488b9f9] (04/16) Accurately ripped
08 [12d3ce7d] (04/16) Accurately ripped
09 [76a29d5e] (04/16) Accurately ripped
10 [b0bb95e3] (04/16) Accurately ripped
11 [496c36a0] (04/16) Accurately ripped
12 [45550e05] (04/16) Accurately ripped
13 [62edef9d] (04/18) Accurately ripped
14 [ad573738] (04/16) Accurately ripped
15 [033eb072] (04/16) Accurately ripped
Offsetted by -664:
01 [f2610157] (00/17) No match (V2 was not tested)
02 [641c306b] (00/16) No match
03 [e832b34c] (00/16) No match
04 [93606d92] (00/16) No match
05 [657b231f] (00/16) No match
06 [a509726f] (00/16) No match
07 [556b2495] (00/16) No match
08 [4a3e23fa] (00/16) No match
09 [0b0a9c71] (00/16) No match
10 [e12494a5] (00/16) No match
11 [70391d00] (00/16) No match
12 [33316430] (00/16) No match
13 [dde506d3] (00/18) No match (V2 was not tested)
14 [8d5f154c] (00/16) No match
15 [c73b6b98] (00/16) No match

Track Peak [ CRC32 ] [W/O NULL] [ LOG ]
-- 100,0 [246CF453] [65CBFA76] CRC32
01 98,9 [68EA7A7D] [F8588AC0]
02 98,9 [1E3BC795] [7F874B0E]
03 100,0 [9ACB6AE5] [7F87D69A]
04 98,6 [F2B717E6] [B43819AC]
05 99,1 [9417091B] [5A030368]
06 99,1 [F5302DFE] [4AE0D9C3]
07 99,9 [AE1443C1] [D4F08357]
08 98,2 [A7AD0472] [C5A27637]
09 99,3 [0DCFCEED] [49584B37]
10 99,6 [82D953F9] [A8CC13D7]
11 98,8 [DAE39534] [2A5F5078]
12 98,5 [7EDF99A9] [517B3912]
13 98,9 [FBE3D7D4] [24756DE7]
14 99,2 [993E50E6] [B59BC32E]
15 99,2 [E880AAEC] [A114675A]

---------
[CUETools log; Date: 2013.10.07. 15:06:50; Version: 2.1.4]
[CTDB TOCID: dFy8auj9YhUY4kfV.wPaSFsGMLw-] found.
Track | CTDB Status
1 | (4/4) Accurately ripped
2 | (4/4) Accurately ripped
3 | (4/4) Accurately ripped
4 | (4/4) Accurately ripped
5 | (4/4) Accurately ripped
6 | (4/4) Accurately ripped
7 | (4/4) Accurately ripped
8 | (4/4) Accurately ripped
9 | (4/4) Accurately ripped
10 | (4/4) Accurately ripped
11 | (4/4) Accurately ripped
12 | (4/4) Accurately ripped
13 | (4/4) Accurately ripped
14 | (4/4) Accurately ripped
15 | (4/4) Accurately ripped
[AccurateRip ID: 0018caa8-01180e6d-c10a8c0f] found.
Track [ CRC | V2 ] Status
01 [7ebf82df|2d3a606f] (07+05/18) Accurately ripped
02 [5a3a6703|b8029773] (07+05/18) Accurately ripped
03 [4897d97d|282878e1] (07+05/18) Accurately ripped
04 [6a6ed253|5963fdc8] (07+05/18) Accurately ripped
05 [cbe43096|6d537c63] (07+05/18) Accurately ripped
06 [4bcfed8f|c75c6934] (07+05/18) Accurately ripped
07 [433aa894|ab082915] (07+05/18) Accurately ripped
08 [cda1801f|6bfd54e4] (07+05/18) Accurately ripped
09 [9d2878be|94794c2f] (07+05/18) Accurately ripped
10 [e952feaa|0fadec67] (07+05/18) Accurately ripped
11 [031d40af|9df6f1c9] (07+05/18) Accurately ripped
12 [0d1b7620|458322a9] (07+05/18) Accurately ripped
13 [c8896fdf|e7366622] (07+05/18) Accurately ripped
14 [9715ab05|d5503414] (07+05/18) Accurately ripped
15 [733878d5|7e04f9d1] (07+05/18) Accurately ripped
Offsetted by -26:
01 [69b86af7] (02/18) Accurately ripped
02 [188dcce5] (02/18) Accurately ripped
03 [9ef03a8f] (02/18) Accurately ripped
04 [a4566259] (02/18) Accurately ripped
05 [bfc1ac4c] (02/18) Accurately ripped
06 [67adda1d] (02/18) Accurately ripped
07 [c1b39fc0] (02/18) Accurately ripped
08 [4f9489a5] (02/18) Accurately ripped
09 [b215f622] (02/18) Accurately ripped
10 [9cbe358c] (02/18) Accurately ripped
11 [4bc31b95] (02/18) Accurately ripped
12 [cbaf730e] (02/18) Accurately ripped
13 [91ea568b] (02/18) Accurately ripped
14 [a7139845] (02/18) Accurately ripped
15 [5e089fc8] (02/18) Accurately ripped
Offsetted by 5:
01 [e540eeed] (04/18) Accurately ripped
02 [c951bfba] (04/18) Accurately ripped
03 [2e24645c] (04/18) Accurately ripped
04 [b7e9acc8] (04/18) Accurately ripped
05 [759c0ef3] (04/18) Accurately ripped
06 [a8ea2c60] (04/18) Accurately ripped
07 [6fd4a06e] (04/18) Accurately ripped
08 [be7c9bd4] (04/18) Accurately ripped
09 [8f4991dc] (04/18) Accurately ripped
10 [81e5c2e1] (04/18) Accurately ripped
11 [b0386f34] (04/18) Accurately ripped
12 [373a1441] (04/18) Accurately ripped
13 [b580a5f9] (04/18) Accurately ripped
14 [9ddafd65] (04/18) Accurately ripped
15 [c61071a5] (04/18) Accurately ripped

Track Peak [ CRC32 ] [W/O NULL] [ LOG ]
-- 78,7 [ABA34487] [BBF2E206] CRC32
01 77,0 [83721826] [B8B92D2E]
02 78,7 [8807A435] [8E08CAE6]
03 75,9 [EDB22869] [FB5C356D]
04 72,6 [E2111415] [40A5CEAA]
05 74,9 [BBEB85C9] [6D61038F]
06 75,8 [142D5D56] [DDAC95CE]
07 75,9 [87E0F8CE] [308B3D54]
08 74,5 [1C496478] [BD9F7DE2]
09 74,5 [B4E888B8] [C76E9BA2]
10 75,8 [E1306698] [B92D42F4]
11 72,2 [BF5328CD] [920E2A19]
12 74,1 [5C32D503] [D6A04199]
13 56,7 [DB7DF0C6] [4205058C]
14 77,6 [C8BB1DE3] [33F17079]
15 62,4 [177410CE] [A04A33DB]

---------
[CUETools log; Date: 2013.10.07. 15:07:53; Version: 2.1.4]
[CTDB TOCID: E9R86VeyWNC.XnAyKVhjjDJKm8k-] found.
Track | CTDB Status
1 | (3/3) Accurately ripped
2 | (3/3) Accurately ripped
3 | (3/3) Accurately ripped
4 | (3/3) Accurately ripped
5 | (3/3) Accurately ripped
6 | (3/3) Accurately ripped
7 | (3/3) Accurately ripped
8 | (3/3) Accurately ripped
9 | (3/3) Accurately ripped
10 | (3/3) Accurately ripped
11 | (3/3) Accurately ripped
12 | (3/3) Accurately ripped
13 | (3/3) Accurately ripped
14 | (3/3) Accurately ripped
15 | (3/3) Accurately ripped
[AccurateRip ID: 001895fa-01169089-ef0a7a0f] found.
Track [ CRC | V2 ] Status
01 [be10a027|12d74a5d] (08+05/17) Accurately ripped
02 [e60abcee|2cd95497] (08+05/17) Accurately ripped
03 [48396a54|0dcdf633] (08+05/17) Accurately ripped
04 [ec69df46|9582e3fc] (08+05/17) Accurately ripped
05 [90659fbd|daede3d7] (08+05/17) Accurately ripped
06 [3c8270cb|f2dc5fb8] (08+05/17) Accurately ripped
07 [7f8e3473|b74e31cc] (08+05/17) Accurately ripped
08 [28bbb778|4467a17f] (08+05/17) Accurately ripped
09 [a5f8f29e|2872cc87] (08+05/17) Accurately ripped
10 [a3f1499c|91f023be] (08+05/19) Accurately ripped
11 [b15eaf7b|d209a369] (08+05/17) Accurately ripped
12 [c8af58c2|075b398d] (08+05/17) Accurately ripped
13 [508371b5|e9e633e1] (08+05/17) Accurately ripped
14 [541feb03|8b6c4b9b] (08+05/17) Accurately ripped
15 [07a4852f|0aec797e] (08+05/17) Accurately ripped
Offsetted by 5:
01 [d773f49e] (04/17) Accurately ripped
02 [69241e67] (04/17) Accurately ripped
03 [65fba9ca] (04/17) Accurately ripped
04 [da72e0ce] (04/17) Accurately ripped
05 [f3a5df05] (04/17) Accurately ripped
06 [e779acc5] (04/17) Accurately ripped
07 [ba04c723] (04/17) Accurately ripped
08 [37346f63] (04/17) Accurately ripped
09 [780ad4c7] (04/17) Accurately ripped
10 [ff64410a] (04/19) Accurately ripped
11 [c7d9d90a] (04/17) Accurately ripped
12 [a20e1536] (04/17) Accurately ripped
13 [e84ea340] (04/17) Accurately ripped
14 [8392434f] (04/17) Accurately ripped
15 [05a5c584] (04/17) Accurately ripped
Offsetted by -664:
01 [66acf76e] (00/17) No match
02 [174692f6] (00/17) No match
03 [0b754b84] (00/17) No match
04 [a48aad86] (00/17) No match
05 [7a44cbfd] (00/17) No match
06 [590e871b] (00/17) No match
07 [920bb5f3] (00/17) No match
08 [4082b590] (00/17) No match
09 [dfe53a26] (00/17) No match
10 [cd1a888c] (00/19) No match (V2 was not tested)
11 [3b1453b3] (00/17) No match
12 [05f0c962] (00/17) No match
13 [2be824cd] (00/17) No match
14 [b7355063] (00/17) No match
15 [cd5bf07c] (00/17) No match

Track Peak [ CRC32 ] [W/O NULL] [ LOG ]
-- 100,0 [9C2CE68D] [DF771ABC] CRC32
01 99,9 [A20EC39D] [D62F2025]
02 99,1 [F9389890] [86760B5B]
03 99,2 [068A8054] [0AD0B01E]
04 98,8 [3AB94428] [E9A5D389]
05 99,7 [954BDDAC] [66D48ABB]
06 92,1 [0A14207D] [22811F40]
07 98,7 [DA56F20A] [FB77C6B9]
08 99,4 [EFA2DB24] [869C52C4]
09 99,0 [FABDA00E] [59C0957F]
10 100,0 [9617677B] [4549B326]
11 98,6 [7ABCBA9A] [42659799]
12 99,7 [72D9D57C] [7B5CDD61]
13 99,6 [990A1789] [F48311DA]
14 98,8 [19571D3B] [EAED8351]
15 99,5 [EC2E4824] [1D5E497B]

------------
[CUETools log; Date: 2013.10.07. 15:08:42; Version: 2.1.4]
[CTDB TOCID: Wtt.JEcwC2sqkpseUnbSyGfQcrQ-] found.
Track | CTDB Status
1 | (3/3) Accurately ripped
2 | (3/3) Accurately ripped
3 | (3/3) Accurately ripped
4 | (3/3) Accurately ripped
5 | (3/3) Accurately ripped
6 | (3/3) Accurately ripped
7 | (3/3) Accurately ripped
8 | (3/3) Accurately ripped
9 | (3/3) Accurately ripped
10 | (3/3) Accurately ripped
11 | (3/3) Accurately ripped
12 | (3/3) Accurately ripped
13 | (3/3) Accurately ripped
14 | (3/3) Accurately ripped
15 | (3/3) Accurately ripped
16 | (3/3) Accurately ripped
[AccurateRip ID: 001a5c99-013e728a-d90add10] found.
Track [ CRC | V2 ] Status
01 [a1563c05|d021be3b] (08+05/19) Accurately ripped
02 [dcb556ed|a45c7f2c] (08+05/21) Accurately ripped
03 [2931b2d1|0c7cacbd] (08+05/19) Accurately ripped
04 [2cb647fb|d3eb4a5e] (08+05/19) Accurately ripped
05 [d7b95b9e|79fd6b7d] (08+05/19) Accurately ripped
06 [428c9896|790f1aff] (08+05/19) Accurately ripped
07 [6140f3e0|c9e4ab31] (08+05/19) Accurately ripped
08 [e966b590|444e7e9c] (08+05/21) Accurately ripped
09 [9da278b1|98f2b922] (08+05/19) Accurately ripped
10 [285eb649|ea2fb745] (08+05/19) Accurately ripped
11 [242be5ca|9a622d73] (08+05/19) Accurately ripped
12 [45c511aa|a14c3b3f] (08+05/19) Accurately ripped
13 [cba57f83|97757ea1] (08+05/21) Accurately ripped
14 [6ac88d37|fdb131a3] (08+05/19) Accurately ripped
15 [7631500a|08ff0097] (08+05/19) Accurately ripped
16 [ae32c205|5b02d644] (08+05/21) Accurately ripped
Offsetted by -26:
01 [135fbafb] (02/19) Accurately ripped
02 [53668ead] (02/21) Accurately ripped
03 [19c838dd] (02/19) Accurately ripped
04 [34516f21] (02/19) Accurately ripped
05 [633cd5d4] (02/19) Accurately ripped
06 [bdd3b448] (02/19) Accurately ripped
07 [105e58ee] (02/19) Accurately ripped
08 [27c65774] (02/21) Accurately ripped
09 [c95caf93] (02/19) Accurately ripped
10 [f272eb5f] (02/19) Accurately ripped
11 [b86374ce] (02/19) Accurately ripped
12 [541d0c3c] (02/19) Accurately ripped
13 [86fd787f] (02/21) Accurately ripped
14 [7487e941] (02/19) Accurately ripped
15 [7927c7c0] (02/19) Accurately ripped
16 [11c5cb4a] (02/21) Accurately ripped
Offsetted by 5:
01 [1e06c8d8] (04/19) Accurately ripped
02 [0ace560d] (04/21) Accurately ripped
03 [3fd9acbb] (04/19) Accurately ripped
04 [66538560] (04/19) Accurately ripped
05 [46bd9cbb] (04/19) Accurately ripped
06 [e5eb3aa5] (04/19) Accurately ripped
07 [e6f66071] (04/19) Accurately ripped
08 [8ea3166e] (04/21) Accurately ripped
09 [1539bce8] (04/19) Accurately ripped
10 [8b5ad376] (04/19) Accurately ripped
11 [6a213698] (04/19) Accurately ripped
12 [392a4dc9] (04/19) Accurately ripped
13 [b1770ab5] (04/21) Accurately ripped
14 [a3fc5dfa] (04/19) Accurately ripped
15 [c4646067] (04/19) Accurately ripped
16 [28eba735] (04/21) Accurately ripped
Offsetted by -664:
01 [4fc8cdfa] (00/19) No match
02 [8c8a97ed] (00/21) No match (V2 was not tested)
03 [020e74a1] (00/19) No match
04 [16580863] (00/19) No match
05 [73eac7c6] (00/19) No match
06 [b64220ce] (00/19) No match
07 [9e5708a8] (00/19) No match
08 [987adc00] (00/21) No match (V2 was not tested)
09 [fa5d7c29] (00/19) No match
10 [0262c6f1] (00/19) No match
11 [d9b6c7ba] (00/19) No match
12 [02daae62] (00/19) No match
13 [2d587d93] (00/21) No match (V2 was not tested)
14 [8b1aa80f] (00/19) No match
15 [4bb40632] (00/19) No match
16 [a1b9d3cb] (00/21) No match (V2 was not tested)

Track Peak [ CRC32 ] [W/O NULL] [ LOG ]
-- 99,8 [6F3EAC33] [A346D316] CRC32
01 99,4 [87F91D08] [05A50D03]
02 98,6 [EB4866F4] [D301BDEC]
03 99,8 [FCC882C5] [9F7846EE]
04 99,7 [0298C9E8] [CD67645E]
05 99,2 [BB98C6A7] [01414EBE]
06 99,1 [FB6A4551] [083A82B5]
07 99,0 [3898105D] [05AB3CF8]
08 98,2 [FD8D3608] [952DC3A5]
09 98,8 [FE19B248] [FA397318]
10 99,1 [BD540DAC] [F15EA2B6]
11 99,1 [CCBC188D] [AB10E8DC]
12 98,9 [26B59780] [743E2F97]
13 99,0 [5A2C8772] [83B28A34]
14 99,1 [9E8E800F] [35FDB088]
15 98,5 [C31082DC] [87B65BDB]
16 98,9 [82599B6C] [79E40564]

----------
[CUETools log; Date: 2013.10.07. 15:09:29; Version: 2.1.4]
[CTDB TOCID: wKwEFdKidOZMgANFpK0IuEVxTMI-] found.
Track | CTDB Status
1 | (3/3) Accurately ripped
2 | (3/3) Accurately ripped
3 | (3/3) Accurately ripped
4 | (3/3) Accurately ripped
5 | (3/3) Accurately ripped
6 | (3/3) Accurately ripped
7 | (3/3) Accurately ripped
8 | (3/3) Accurately ripped
9 | (3/3) Accurately ripped
10 | (3/3) Accurately ripped
11 | (3/3) Accurately ripped
12 | (3/3) Accurately ripped
13 | (3/3) Accurately ripped
14 | (3/3) Accurately ripped
15 | (3/3) Accurately ripped
[AccurateRip ID: 001a0ad9-0129738c-b80b2a0f] found.
Track [ CRC | V2 ] Status
01 [3f84c2bd|e8036a87] (08+05/17) Accurately ripped
02 [fa5fd357|2fdfc53c] (08+05/17) Accurately ripped
03 [94f695dc|b470c275] (07+05/16) Accurately ripped
04 [572c470a|7fa5bd2f] (08+05/17) Accurately ripped
05 [ef9be1ee|bb1cd089] (08+05/17) Accurately ripped
06 [98b55fc0|bbe5c5fb] (08+05/19) Accurately ripped
07 [b3cce9dc|a93b2b1e] (08+05/17) Accurately ripped
08 [9636fbc3|952db17f] (08+05/17) Accurately ripped
09 [a34c1282|0c90358a] (08+05/17) Accurately ripped
10 [5d8defaf|eed2fa1c] (08+05/19) Accurately ripped
11 [ac209b73|305836ec] (08+05/17) Accurately ripped
12 [a082bcd2|73731b8e] (08+05/17) Accurately ripped
13 [5c86a866|458f93f4] (08+05/17) Accurately ripped
14 [3c1471fa|ea06b380] (08+05/17) Accurately ripped
15 [42a70fdf|50a0105f] (08+05/17) Accurately ripped
Offsetted by 5:
01 [e834c922] (04/17) Accurately ripped
02 [b16c95e4] (04/17) Accurately ripped
03 [59710aa2] (04/16) Accurately ripped
04 [41eca7bd] (04/17) Accurately ripped
05 [6fb9380e] (04/17) Accurately ripped
06 [440b014a] (04/19) Accurately ripped
07 [eb3dfb31] (04/17) Accurately ripped
08 [81690f73] (04/17) Accurately ripped
09 [65752136] (04/17) Accurately ripped
10 [7d0c87e1] (04/19) Accurately ripped
11 [53d042b1] (04/17) Accurately ripped
12 [064ddbca] (04/17) Accurately ripped
13 [d60c54de] (04/17) Accurately ripped
14 [3603b644] (04/17) Accurately ripped
15 [0375eba0] (04/17) Accurately ripped
Offsetted by -664:
01 [0610c12d] (00/17) No match
02 [055ae6ff] (00/17) No match
03 [423d358c] (00/16) No match
04 [5cfa1d62] (00/17) No match
05 [79fd9aee] (00/17) No match
06 [b77cc690] (00/19) No match (V2 was not tested)
07 [f12585c4] (00/17) No match
08 [943cc543] (00/17) No match
09 [1dffa522] (00/17) No match
10 [3a4895bf] (00/19) No match (V2 was not tested)
11 [7c350ce3] (00/17) No match
12 [6bf11292] (00/17) No match
13 [1f2eca26] (00/17) No match
14 [94c29eca] (00/17) No match
15 [5622d623] (00/17) No match

Track Peak [ CRC32 ] [W/O NULL] [ LOG ]
-- 100,0 [20F3AEB0] [4B6F4E27] CRC32
01 99,1 [9C82BBE1] [02494172]
02 98,2 [61C56121] [3579783D]
03 98,3 [007C77B4] [62C30978]
04 98,9 [353CE808] [25DC06DA]
05 99,1 [8410904B] [F36CB511]
06 99,1 [75B9518A] [76C96424]
07 100,0 [E063F482] [460F5F09]
08 98,8 [18BFAC83] [2FFDF060]
09 98,5 [0360D82C] [AF469E6C]
10 99,1 [8EC4C850] [E9D9D446]
11 99,6 [D1C2D65A] [AB6F9EDD]
12 98,8 [489B8CF4] [404E4AC7]
13 99,1 [975C1B92] [C8BE2C09]
14 99,7 [0730D77F] [55F54B58]
15 100,0 [4010DC1D] [542C86FC]

---------
[CUETools log; Date: 2013.10.07. 15:10:10; Version: 2.1.4]
[CTDB TOCID: ncYhWl5UD2FEZ9AyjNex5Fpz7n0-] found.
Track | CTDB Status
1 | (4/4) Accurately ripped
2 | (4/4) Accurately ripped
3 | (4/4) Accurately ripped
4 | (4/4) Accurately ripped
5 | (4/4) Accurately ripped
6 | (4/4) Accurately ripped
7 | (4/4) Accurately ripped
8 | (4/4) Accurately ripped
9 | (4/4) Accurately ripped
10 | (4/4) Accurately ripped
11 | (4/4) Accurately ripped
12 | (4/4) Accurately ripped
13 | (4/4) Accurately ripped
14 | (4/4) Accurately ripped
15 | (4/4) Accurately ripped
16 | (4/4) Accurately ripped
[AccurateRip ID: 00196a1c-012f9680-d50a1110] found.
Track [ CRC | V2 ] Status
01 [dbcf13ed|7f22c981] (07+05/16) Accurately ripped
02 [81498fd9|ddbe37ac] (07+05/16) Accurately ripped
03 [6c2078f8|fd3b9c7b] (07+05/16) Accurately ripped
04 [2cb5e32b|11864df9] (07+05/16) Accurately ripped
05 [325f5cdd|28c0348e] (07+05/16) Accurately ripped
06 [3fc41e54|c953f5c9] (07+05/16) Accurately ripped
07 [431cc786|4b28e78c] (07+05/16) Accurately ripped
08 [b3b366e7|43d7051f] (07+05/16) Accurately ripped
09 [394183a8|a6edc04a] (07+05/16) Accurately ripped
10 [75bb60c1|9d1e4c05] (07+05/16) Accurately ripped
11 [2ebb495b|8a8cbefd] (07+05/18) Accurately ripped
12 [49aa8e7a|2e875a5e] (07+05/16) Accurately ripped
13 [79e370da|198153aa] (07+05/16) Accurately ripped
14 [a67f63be|03952868] (07+05/16) Accurately ripped
15 [97868ae0|57b7bd2c] (07+05/16) Accurately ripped
16 [95c468ee|40f9021c] (07+05/16) Accurately ripped
Offsetted by 5:
01 [7ba5f09f] (04/16) Accurately ripped
02 [73bdc676] (04/16) Accurately ripped
03 [21517f8d] (04/16) Accurately ripped
04 [8a8123b6] (04/16) Accurately ripped
05 [41359e90] (04/16) Accurately ripped
06 [2ec5fa91] (04/16) Accurately ripped
07 [424a46eb] (04/16) Accurately ripped
08 [562a3df0] (04/16) Accurately ripped
09 [f66d5085] (04/16) Accurately ripped
10 [08945720] (04/16) Accurately ripped
11 [d06815a6] (04/18) Accurately ripped
12 [a667fa60] (04/16) Accurately ripped
13 [930a107c] (04/16) Accurately ripped
14 [3f6a34ed] (04/16) Accurately ripped
15 [c0076dd8] (04/16) Accurately ripped
16 [2dd116cc] (04/16) Accurately ripped
Offsetted by -664:
01 [3889ff96] (00/16) No match
02 [ee9a0801] (00/16) No match
03 [6de50ee0] (00/16) No match
04 [b812ce43] (00/16) No match
05 [19a07b35] (00/16) No match
06 [1066ab7c] (00/16) No match
07 [49e917ee] (00/16) No match
08 [9fa70d6f] (00/16) No match
09 [b0ef3dd0] (00/16) No match
10 [aec85f79] (00/16) No match
11 [e9e48273] (00/18) No match (V2 was not tested)
12 [94342f2a] (00/16) No match
13 [a10d6e6a] (00/16) No match
14 [ecafacf6] (00/16) No match
15 [2e4400a0] (00/16) No match
16 [a3417de2] (00/16) No match

Track Peak [ CRC32 ] [W/O NULL] [ LOG ]
-- 100,0 [74191959] [166184B5] CRC32
01 99,0 [5848BB91] [F3A0B383]
02 100,0 [061F0A10] [3DDAB585]
03 99,1 [A3C6C1C0] [9FBE5A17]
04 98,2 [5BFF37D4] [3C39CA02]
05 98,5 [09010E8A] [29AF2E4E]
06 99,1 [D322B011] [44B32BE4]
07 98,7 [6EC663E1] [2E1EFD50]
08 99,7 [2541DEB7] [5578B360]
09 98,2 [8C965683] [D04C74B5]
10 99,1 [2FAD5FDF] [D296096B]
11 98,1 [FCB58A7B] [8F429C49]
12 99,2 [64AB6A28] [9975426D]
13 98,3 [489DE6B3] [22702EF2]
14 99,1 [D8EF2B70] [48CFF6E7]
15 99,1 [E1B9721E] [917A3C7A]
16 99,5 [622394FB] [6B0848BC]

-------
[CUETools log; Date: 2013.10.07. 15:11:11; Version: 2.1.4]
[CTDB TOCID: U3MK7BzMBkE.SU2hXjtNkHS.q7U-] found.
Track | CTDB Status
1 | (3/3) Accurately ripped
2 | (3/3) Accurately ripped
3 | (3/3) Accurately ripped
4 | (3/3) Accurately ripped
5 | (3/3) Accurately ripped
6 | (3/3) Accurately ripped
7 | (3/3) Accurately ripped
8 | (3/3) Accurately ripped
9 | (3/3) Accurately ripped
10 | (3/3) Accurately ripped
11 | (3/3) Accurately ripped
12 | (3/3) Accurately ripped
13 | (3/3) Accurately ripped
14 | (3/3) Accurately ripped
[AccurateRip ID: 0013662e-00cc72e9-aa08780e] found.
Track [ CRC | V2 ] Status
01 [d64a2839|33aef321] (06+05/17) Accurately ripped
02 [9ece9104|f94a59fc] (06+05/15) Accurately ripped
03 [3a152da5|90d0d261] (06+05/15) Accurately ripped
04 [9b9fccce|da353c30] (06+05/15) Accurately ripped
05 [8330c030|7455ade8] (06+05/15) Accurately ripped
06 [1efaad9b|ed8e7342] (06+05/15) Accurately ripped
07 [2c055f1a|d21d3314] (06+05/15) Accurately ripped
08 [507e3c55|16db2613] (06+05/15) Accurately ripped
09 [980a86f7|2846d39e] (06+05/15) Accurately ripped
10 [a8a85ce1|6dea561c] (06+05/15) Accurately ripped
11 [3267463b|de055773] (06+05/15) Accurately ripped
12 [49a20b4a|3de6dd39] (06+05/15) Accurately ripped
13 [2ea5f074|9b9a0aab] (06+05/15) Accurately ripped
14 [851dc5a0|7d8bc103] (06+05/15) Accurately ripped
Offsetted by 5:
01 [64d09487] (04/17) Accurately ripped
02 [da3f6c65] (04/15) Accurately ripped
03 [07bb0d93] (04/15) Accurately ripped
04 [7da251de] (04/15) Accurately ripped
05 [9b78b358] (04/15) Accurately ripped
06 [f71d38b0] (04/15) Accurately ripped
07 [9e423018] (04/15) Accurately ripped
08 [7371e047] (04/15) Accurately ripped
09 [e45a638f] (04/15) Accurately ripped
10 [e4fff524] (04/15) Accurately ripped
11 [6c492997] (04/15) Accurately ripped
12 [a7206945] (04/15) Accurately ripped
13 [94f56249] (04/15) Accurately ripped
14 [9f8fb1dc] (04/15) Accurately ripped
Offsetted by -664:
01 [1cebfef1] (00/17) No match (V2 was not tested)
02 [62a9904c] (00/15) No match
03 [58d5d095] (00/15) No match
04 [f71df94e] (00/15) No match
05 [51110370] (00/15) No match
06 [00428783] (00/15) No match
07 [b6128e8a] (00/15) No match
08 [c8813065] (00/15) No match
09 [9b69b1b7] (00/15) No match
10 [280493b9] (00/15) No match
11 [f86c881b] (00/15) No match
12 [30147de2] (00/15) No match
13 [b56fb05c] (00/15) No match
14 [ba82622a] (00/15) No match

Track Peak [ CRC32 ] [W/O NULL] [ LOG ]
-- 100,0 [BC05814F] [4C40F683] CRC32
01 98,5 [A0E93EB0] [EBF3F219]
02 99,3 [15CFD110] [3957A64E]
03 98,8 [15886CDF] [BD4AD9FB]
04 100,0 [C9A16AA7] [358386C4]
05 99,4 [A58E3D6C] [6AC28B4E]
06 98,9 [3EF8C133] [0C94F6D6]
07 99,1 [39BBB98A] [2963B532]
08 100,0 [D3515057] [DF7F771C]
09 99,9 [22C65599] [1496E8A5]
10 99,9 [85CB9081] [1D636931]
11 99,8 [032D0314] [C4C0BC94]
12 99,0 [AB6743FB] [BAE8D6E3]
13 99,3 [85540901] [F8570C43]
14 99,2 [56CE9337] [5BEEADEC]

---------
[CUETools log; Date: 2013.10.07. 15:12:06; Ver


Saint Germain John Lee Hooker | John Lee Hooker | John Lee Hooker Plays And Sing The Blues | John Lee Hooker Moanin And Stompin The Blues | John Lee Hooker Burnin | The Best Of John Lee Hooker | John Lee Hooker Albums | Im John Lee Hooker | John Lee Hooker Mr | Mr Lucky John Lee Hooker
John Lee Hooker - Blues Is The Healer (2005) (box set) REPOST Torrent Download with keygen, crack, serial, dvdrip, hdrip, HD, 720p, 1024p, 2016, 2015