Pan 3D HOU BluRay 3D 1080p | Noche en el museo 2 | Rohan Mead

Philip Glass - The Thin Blue Line (1989)

New Download Links
Speed
 kbps
 kbps
 kbps

Philip Glass - The Thin Blue Line (1989)
EAC | FLAC | Tracks (Cue&Log) ~ 353 Mb (incl 5%) | Mp3 (CBR320) ~ 203 Mb (incl 5%) | Scans included
Genre: Soundtrack, Score, Minimalism | Label: Elektra/Nonesuch | # 7559-79209-2 | Time: 01:08:50

The soundtrack to Errol Morris' documentary The Thin Blue Line emphasizes story over music; the interviews which make up the majority of the film -- a crusading effort which led to the the release of its subject, Randall Adams, from a Texas prison -- are presented on record as they were on screen, with Glass' chamber orchestra music hovering in the background. The result is a soundtrack which comes remarkably close to capturing the power of its source film; even without the moving images, this is a chilling document.

Review by Jason Ankeny, Allmusic.com


Philip Glass Biography
Philip Glass Website
Philip Glass at Wiki

Film at IMDB
Film at Wiki

Tracklist:

01. Opening Credits (01:32)
02. Prologue (04:43)
03. Interrogation, Part One (02:08)
04. Interrogation, Part Two (00:36)
05. Turko, Part One (02:38)
06. Turko, Part Two (02:03)
07. Vidor (01:49)
08. Harris' Story (01:33)
09. Adams' Story (01:51)
10. Comets and Vegas (01:37)
11. The Defense Attorneys, Part One (02:08)
12. Harris' Crimes, Part One (01:42)
13. The Judge (00:44)
14. The Trial, Part One (02:38)
15. The Trial, Part Two (02:27)
16. The Mystery Eyewitness, Part One (03:00)
17. The Mystery Eyewitness, Part Two (04:25)
18. Elba Carr (00:47)
19. The Mystery Eyewitness, Part Three (02:49)
20. The Thin Blue Line (01:04)
21. Dr. Death (04:41)
22. The Electric Chair (02:53)
23. The Defense Attorneys, Part Two (01:00)
24. Harris' Testimony (02:03)
25. The Mystery Eyewitness, Part Four (01:52)
26. The Mystery Eyewitness, Part Five (01:07)
27. Harris' Crimes, Part Two (01:35)
28. Hell On Earth (01:44)
29. Harris' Childhood (02:36)
30. The Confession (02:49)
31. End Credits (03:59)


EAC log
Exact Audio Copy V1.0 beta 3 from 29. August 2011

EAC extraction logfile from 30. November 2012, 15:22

Philip Glass / The Thin Blue Line

Used drive : PLEXTOR DVDR PX-L890SA Adapter: 1 ID: 0

Read mode : Secure
Utilize accurate stream : Yes
Defeat audio cache : Yes
Make use of C2 pointers : No

Read offset correction : 6
Overread into Lead-In and Lead-Out : No
Fill up missing offset samples with silence : Yes
Delete leading and trailing silent blocks : No
Null samples used in CRC calculations : Yes
Used interface : Installed external ASPI interface
Gap handling : Appended to previous track

Used output format : User Defined Encoder
Selected bitrate : 1024 kBit/s
Quality : High
Add ID3 tag : No
Command line compressor : C:Program FilesExact Audio CopyFlacflac.exe
Additional command line options : -V -8 -T "Genre=%genre%" -T "Artist=%artist%" -T "Title=%title%" -T "Album=%albumtitle%" -T "Date=%year%" -T "Tracknumber=%tracknr%" -T "Comment=%comment%" %source% TOC of the extracted CD

Track | Start | Length | Start sector | End sector
---------------------------------------------------------
1 | 0:00.00 | 1:32.62 | 0 | 6961
2 | 1:32.62 | 4:43.63 | 6962 | 28249
3 | 6:16.50 | 2:08.70 | 28250 | 37919
4 | 8:25.45 | 0:36.70 | 37920 | 40689
5 | 9:02.40 | 2:38.65 | 40690 | 52604
6 | 11:41.30 | 2:03.52 | 52605 | 61881
7 | 13:45.07 | 1:49.65 | 61882 | 70121
8 | 15:34.72 | 1:33.33 | 70122 | 77129
9 | 17:08.30 | 1:51.60 | 77130 | 85514
10 | 19:00.15 | 1:37.32 | 85515 | 92821
11 | 20:37.47 | 2:08.35 | 92822 | 102456
12 | 22:46.07 | 1:42.55 | 102457 | 110161
13 | 24:28.62 | 0:44.25 | 110162 | 113486
14 | 25:13.12 | 2:38.03 | 113487 | 125339
15 | 27:51.15 | 2:27.55 | 125340 | 136419
16 | 30:18.70 | 3:00.62 | 136420 | 149981
17 | 33:19.57 | 4:25.45 | 149982 | 169901
18 | 37:45.27 | 0:47.33 | 169902 | 173459
19 | 38:32.60 | 2:49.00 | 173460 | 186134
20 | 41:21.60 | 1:04.27 | 186135 | 190961
21 | 42:26.12 | 4:41.50 | 190962 | 212086
22 | 47:07.62 | 2:53.40 | 212087 | 225101
23 | 50:01.27 | 1:00.38 | 225102 | 229639
24 | 51:01.65 | 2:03.15 | 229640 | 238879
25 | 53:05.05 | 1:52.15 | 238880 | 247294
26 | 54:57.20 | 1:07.72 | 247295 | 252391
27 | 56:05.17 | 1:35.35 | 252392 | 259551
28 | 57:40.52 | 1:44.08 | 259552 | 267359
29 | 59:24.60 | 2:36.57 | 267360 | 279116
30 | 62:01.42 | 2:49.45 | 279117 | 291836
31 | 64:51.12 | 3:59.35 | 291837 | 309796 Track 1

Filename F:torrentThe Thin Blue Line_Philip Glassscore1 Opening Credits.wav

Pre-gap length 0:00:02.00

Peak level 33.7 %
Extraction speed 4.5 X
Track quality 100.0 %
Test CRC 89439829
Copy CRC 89439829
Accurately ripped (confidence 4) [794B5B6B] (AR v1)
Copy OK

Track 2

Filename F:torrentThe Thin Blue Line_Philip Glassscore2 Prologue.wav

Pre-gap length 0:00:00.67

Peak level 82.0 %
Extraction speed 5.3 X
Track quality 99.9 %
Test CRC 7F596923
Copy CRC 7F596923
Accurately ripped (confidence 4) [18FBADBC] (AR v1)
Copy OK

Track 3

Filename F:torrentThe Thin Blue Line_Philip Glassscore3 Interrogation, Part One.wav

Pre-gap length 0:00:01.28

Peak level 58.5 %
Extraction speed 5.5 X
Track quality 100.0 %
Test CRC 72A9ED5F
Copy CRC 72A9ED5F
Accurately ripped (confidence 4) [BED35916] (AR v1)
Copy OK

Track 4

Filename F:torrentThe Thin Blue Line_Philip Glassscore4 Interrogation, Part Two.wav

Peak level 49.1 %
Extraction speed 3.7 X
Track quality 100.0 %
Test CRC 0E7A01FA
Copy CRC 0E7A01FA
Accurately ripped (confidence 4) [B831870F] (AR v1)
Copy OK

Track 5

Filename F:torrentThe Thin Blue Line_Philip Glassscore5 Turko, Part One.wav

Pre-gap length 0:00:00.50

Peak level 43.5 %
Extraction speed 5.6 X
Track quality 100.0 %
Test CRC 32C72B72
Copy CRC 32C72B72
Accurately ripped (confidence 5) [E61A4536] (AR v1)
Copy OK

Track 6

Filename F:torrentThe Thin Blue Line_Philip Glassscore6 Turko, Part Two.wav

Pre-gap length 0:00:00.13

Peak level 58.0 %
Extraction speed 5.8 X
Track quality 100.0 %
Test CRC 80F21CAC
Copy CRC 80F21CAC
Accurately ripped (confidence 5) [3C8D4B86] (AR v1)
Copy OK

Track 7

Filename F:torrentThe Thin Blue Line_Philip Glassscore7 Vidor.wav

Pre-gap length 0:00:00.65

Peak level 38.0 %
Extraction speed 4.5 X
Track quality 99.9 %
Test CRC 5DF546B8
Copy CRC 5DF546B8
Accurately ripped (confidence 5) [5EDF783D] (AR v1)
Copy OK

Track 8

Filename F:torrentThe Thin Blue Line_Philip Glassscore8 Harris' Story.wav

Pre-gap length 0:00:00.39

Peak level 39.3 %
Extraction speed 5.6 X
Track quality 100.0 %
Test CRC BD46FD35
Copy CRC BD46FD35
Accurately ripped (confidence 5) [A473B1B5] (AR v1)
Copy OK

Track 9

Filename F:torrentThe Thin Blue Line_Philip Glassscore9 Adams' Story.wav

Pre-gap length 0:00:00.60

Peak level 36.7 %
Extraction speed 6.1 X
Track quality 100.0 %
Test CRC 5B78F095
Copy CRC 5B78F095
Accurately ripped (confidence 5) [B5359D8D] (AR v1)
Copy OK

Track 10

Filename F:torrentThe Thin Blue Line_Philip Glassscore10 Comets and Vegas.wav

Pre-gap length 0:00:02.70

Peak level 49.7 %
Extraction speed 6.2 X
Track quality 100.0 %
Test CRC 75769714
Copy CRC 75769714
Accurately ripped (confidence 5) [FCABABD8] (AR v1)
Copy OK

Track 11

Filename F:torrentThe Thin Blue Line_Philip Glassscore11 The Defense Attorneys, Part One.wav

Pre-gap length 0:00:01.62

Peak level 43.4 %
Extraction speed 5.6 X
Track quality 99.9 %
Test CRC D0327AA4
Copy CRC D0327AA4
Accurately ripped (confidence 5) [7B9579F9] (AR v1)
Copy OK

Track 12

Filename F:torrentThe Thin Blue Line_Philip Glassscore12 Harris' Crimes, Part One.wav

Pre-gap length 0:00:00.32

Peak level 42.7 %
Extraction speed 6.6 X
Track quality 100.0 %
Test CRC 8C6D8D12
Copy CRC 8C6D8D12
Accurately ripped (confidence 5) [45E98A6E] (AR v1)
Copy OK

Track 13

Filename F:torrentThe Thin Blue Line_Philip Glassscore13 The Judge.wav

Pre-gap length 0:00:01.12

Peak level 35.7 %
Extraction speed 5.0 X
Track quality 100.0 %
Test CRC 67D6F2C2
Copy CRC 67D6F2C2
Accurately ripped (confidence 5) [25C04B65] (AR v1)
Copy OK

Track 14

Filename F:torrentThe Thin Blue Line_Philip Glassscore14 The Trial, Part One.wav

Pre-gap length 0:00:02.10

Peak level 32.6 %
Extraction speed 6.4 X
Track quality 99.9 %
Test CRC 9AD5804C
Copy CRC 9AD5804C
Accurately ripped (confidence 5) [3DA33105] (AR v1)
Copy OK

Track 15

Filename F:torrentThe Thin Blue Line_Philip Glassscore15 The Trial, Part Two.wav

Pre-gap length 0:00:01.23

Peak level 34.8 %
Extraction speed 6.3 X
Track quality 99.9 %
Test CRC 5CB0B912
Copy CRC 5CB0B912
Accurately ripped (confidence 5) [0D45A454] (AR v1)
Copy OK

Track 16

Filename F:torrentThe Thin Blue Line_Philip Glassscore16 The Mystery Eyewitness, Part One.wav

Pre-gap length 0:00:00.68

Peak level 54.8 %
Extraction speed 8.0 X
Track quality 100.0 %
Test CRC A3D09468
Copy CRC A3D09468
Accurately ripped (confidence 5) [17E556B0] (AR v1)
Copy OK

Track 17

Filename F:torrentThe Thin Blue Line_Philip Glassscore17 The Mystery Eyewitness, Part Two.wav

Pre-gap length 0:00:01.70

Peak level 47.4 %
Extraction speed 7.9 X
Track quality 99.9 %
Test CRC 897A83EC
Copy CRC 897A83EC
Accurately ripped (confidence 5) [52D085F0] (AR v1)
Copy OK

Track 18

Filename F:torrentThe Thin Blue Line_Philip Glassscore18 Elba Carr.wav

Pre-gap length 0:00:01.30

Peak level 45.0 %
Extraction speed 4.0 X
Track quality 99.7 %
Test CRC D81275B9
Copy CRC D81275B9
Accurately ripped (confidence 5) [9DBF1330] (AR v1)
Copy OK

Track 19

Filename F:torrentThe Thin Blue Line_Philip Glassscore19 The Mystery Eyewitness, Part Three.wav

Pre-gap length 0:00:02.00

Peak level 37.9 %
Extraction speed 7.4 X
Track quality 99.9 %
Test CRC D2265BA4
Copy CRC D2265BA4
Accurately ripped (confidence 5) [4AAA2876] (AR v1)
Copy OK

Track 20

Filename F:torrentThe Thin Blue Line_Philip Glassscore20 The Thin Blue Line.wav

Pre-gap length 0:00:02.53

Peak level 44.1 %
Extraction speed 6.7 X
Track quality 100.0 %
Test CRC 153124EE
Copy CRC 153124EE
Accurately ripped (confidence 5) [B7B52C97] (AR v1)
Copy OK

Track 21

Filename F:torrentThe Thin Blue Line_Philip Glassscore21 Dr. Death.wav

Pre-gap length 0:00:00.47

Peak level 38.9 %
Extraction speed 9.7 X
Track quality 100.0 %
Test CRC E3CEE88D
Copy CRC E3CEE88D
Accurately ripped (confidence 5) [B248E489] (AR v1)
Copy OK

Track 22

Filename F:torrentThe Thin Blue Line_Philip Glassscore22 The Electric Chair.wav

Pre-gap length 0:00:00.50

Peak level 44.1 %
Extraction speed 9.2 X
Track quality 100.0 %
Test CRC 687D492B
Copy CRC 687D492B
Accurately ripped (confidence 5) [AA3F5F8B] (AR v1)
Copy OK

Track 23

Filename F:torrentThe Thin Blue Line_Philip Glassscore23 The Defense Attorneys, Part Two.wav

Pre-gap length 0:00:00.57

Peak level 32.2 %
Extraction speed 7.0 X
Track quality 100.0 %
Test CRC 248CDC9B
Copy CRC 248CDC9B
Accurately ripped (confidence 5) [C3AC9010] (AR v1)
Copy OK

Track 24

Filename F:torrentThe Thin Blue Line_Philip Glassscore24 Harris' Testimony.wav

Pre-gap length 0:00:00.60

Peak level 50.8 %
Extraction speed 8.7 X
Track quality 100.0 %
Test CRC F47B2799
Copy CRC F47B2799
Accurately ripped (confidence 5) [2280D40C] (AR v1)
Copy OK

Track 25

Filename F:torrentThe Thin Blue Line_Philip Glassscore25 The Mystery Eyewitness, Part Four.wav

Peak level 42.7 %
Extraction speed 7.0 X
Track quality 99.9 %
Test CRC 50883C68
Copy CRC 50883C68
Accurately ripped (confidence 5) [D25879BA] (AR v1)
Copy OK

Track 26

Filename F:torrentThe Thin Blue Line_Philip Glassscore26 The Mystery Eyewitness, Part Five.wav

Pre-gap length 0:00:00.68

Peak level 49.5 %
Extraction speed 7.5 X
Track quality 100.0 %
Test CRC 6FE54CC5
Copy CRC 6FE54CC5
Accurately ripped (confidence 5) [F660EEDB] (AR v1)
Copy OK

Track 27

Filename F:torrentThe Thin Blue Line_Philip Glassscore27 Harris' Crimes, Part Two.wav

Pre-gap length 0:00:00.05

Peak level 28.3 %
Extraction speed 8.3 X
Track quality 100.0 %
Test CRC 43536964
Copy CRC 43536964
Accurately ripped (confidence 5) [9D3DF297] (AR v1)
Copy OK

Track 28

Filename F:torrentThe Thin Blue Line_Philip Glassscore28 Hell On Earth.wav

Pre-gap length 0:00:00.65

Peak level 35.2 %
Extraction speed 8.7 X
Track quality 100.0 %
Test CRC 9119B777
Copy CRC 9119B777
Accurately ripped (confidence 5) [FF00BCFB] (AR v1)
Copy OK

Track 29

Filename F:torrentThe Thin Blue Line_Philip Glassscore29 Harris' Childhood.wav

Pre-gap length 0:00:00.55

Peak level 35.6 %
Extraction speed 9.8 X
Track quality 100.0 %
Test CRC 98C042E5
Copy CRC 98C042E5
Accurately ripped (confidence 5) [6DAB1F6E] (AR v1)
Copy OK

Track 30

Filename F:torrentThe Thin Blue Line_Philip Glassscore30 The Confession.wav

Pre-gap length 0:00:00.67

Peak level 50.6 %
Extraction speed 10.0 X
Track quality 100.0 %
Test CRC 738DE572
Copy CRC 738DE572
Accurately ripped (confidence 5) [35C2E771] (AR v1)
Copy OK

Track 31

Filename F:torrentThe Thin Blue Line_Philip Glassscore31 End Credits.wav

Pre-gap length 0:00:00.32

Peak level 51.3 %
Extraction speed 10.7 X
Track quality 100.0 %
Test CRC 0036A2CA
Copy CRC 0036A2CA
Accurately ripped (confidence 5) [EAA8F529] (AR v1)
Copy OK All tracks accurately ripped

No errors occurred

End of status report

==== Log checksum 3D8E121D7399E8FFEF90FF001898A939C06301583738CB5ED2D3B1B532C3C63F ====

DR log
foobar2000 1.2 / Dynamic Range Meter 1.1.1
log date: 2015-02-16 15:14:01

--------------------------------------------------------------------------------
Analyzed: Philip Glass / The Thin Blue Line
--------------------------------------------------------------------------------

DR Peak RMS Duration Track
--------------------------------------------------------------------------------
DR10 -9.43 dB -22.03 dB 1:33 01-Opening Credits
DR15 -1.71 dB -24.15 dB 4:44 02-Prologue
DR18 -4.66 dB -27.15 dB 2:09 03-Interrogation, Part One
DR17 -6.16 dB -27.93 dB 0:37 04-Interrogation, Part Two
DR15 -7.22 dB -26.69 dB 2:39 05-Turko, Part One
DR16 -4.73 dB -26.40 dB 2:04 06-Turko, Part Two
DR15 -8.39 dB -28.51 dB 1:50 07-Vidor
DR16 -8.10 dB -29.77 dB 1:33 08-Harris' Story
DR16 -8.69 dB -28.32 dB 1:52 09-Adams' Story
DR15 -6.06 dB -26.57 dB 1:37 10-Comets and Vegas
DR12 -7.25 dB -27.29 dB 2:08 11-The Defense Attorneys, Part One
DR15 -7.38 dB -28.06 dB 1:43 12-Harris' Crimes, Part One
DR12 -8.93 dB -28.16 dB 0:44 13-The Judge
DR15 -9.73 dB -29.50 dB 2:38 14-The Trial, Part One
DR15 -9.17 dB -29.44 dB 2:28 15-The Trial, Part Two
DR17 -5.22 dB -28.65 dB 3:01 16-The Mystery Eyewitness, Part One
DR16 -6.48 dB -27.98 dB 4:26 17-The Mystery Eyewitness, Part Two
DR16 -6.93 dB -27.71 dB 0:47 18-Elba Carr
DR17 -8.43 dB -28.78 dB 2:49 19-The Mystery Eyewitness, Part Three
DR15 -7.11 dB -28.97 dB 1:04 20-The Thin Blue Line
DR16 -8.18 dB -29.29 dB 4:42 21-Dr. Death
DR16 -7.10 dB -29.75 dB 2:54 22-The Electric Chair
DR15 -9.82 dB -28.82 dB 1:01 23-The Defense Attorneys, Part Two
DR19 -5.88 dB -28.38 dB 2:03 24-Harris' Testimony
DR14 -7.38 dB -27.62 dB 1:52 25-The Mystery Eyewitness, Part Four
DR9 -6.11 dB -26.93 dB 1:08 26-The Mystery Eyewitness, Part Five
DR14 -10.94 dB -28.56 dB 1:35 27-Harris' Crimes, Part Two
DR16 -9.06 dB -28.91 dB 1:44 28-Hell On Earth
DR16 -8.97 dB -29.21 dB 2:37 29-Harris' Childhood
DR16 -5.91 dB -26.30 dB 2:50 30-The Confession
DR11 -5.79 dB -22.45 dB 3:59 31-End Credits
--------------------------------------------------------------------------------

Number of tracks: 31
Official DR value: DR15

Samplerate: 44100 Hz
Channels: 2
Bits per sample: 16
Bitrate: 744 kbps
Codec: FLAC
================================================================================



All thanks to original releaser - Sarant

More Soundtracks in My Blog

Film at Avaxhome:




Philip Glass Concert | Red Thin Line | Best Of Philip Glass | The Illusionist Philip Glass Ost | Philip Glass Koyaanisqat | The Thin Red Line Soundtrack | The Thin Red Line 1080P | Philip Glass Solo Piano | The Thin Red Line | Philip Glass Koyaanisqatsi
Philip Glass - The Thin Blue Line (1989) Torrent Download with keygen, crack, serial, dvdrip, hdrip, HD, 720p, 1024p, 2016, 2015