SCARICA ADESSO | Ryan Gosling Filmographie [Streaming] [Telecharger] | The LEGO NINJAGO Movie

Monty Alexander Trio - Love Me Tender (2011) Venus

New Download Links
Speed
 kbps
 kbps
 kbps

Monty Alexander Trio - Love Me Tender (2011) {Venus}
EAC 1.0b3 | FLAC tracks level 8 | Cue+Log+M3U | Full Scans 400dpi | 441MB + 5% Recovery
Genre: Jazz, Post-Bop

Soulful, swinging, funky and decidedly straight ahead, Alexander's maturity brought a certain richness and relaxed elegance to his playing. With his trusted rhythm section, he plays standards and a couple of his originals, plus a few of Ray Brown's (his mentor and early collaborator) repertory. This is one of his strongest albums in recent years!

Track List
01. A Beautiful Friendship 4:49
02. Can't You See 6:15
03. Come Fly With Me 8:06
04. Got To Go 6:12
05. I've Never Been In Love Before 5:17
06. Love Me Tender / A House Is Not A Home 5:14
07. Ruby 4:59
08. Sweet Lady 5:07
09. Used To Be Jackson 6:05
10. You Call It Madness 5:28
11. We've Only Just Begun 7:06

musicians
Monty Alexander - piano
Hassan Shakur - bass
Willie Jones III - drums

Produced by Tetsuo Hara and Todd Barkan

EAC Logfile

Exact Audio Copy V1.0 beta 3 from 29. August 2011

EAC extraction logfile from 13. October 2014, 13:39

Monty Alexander Trio / Love Me Tender

Used drive : ATAPI iHAS124 D Adapter: 1 ID: 0

Read mode : Secure
Utilize accurate stream : Yes
Defeat audio cache : Yes
Make use of C2 pointers : No

Read offset correction : 6
Overread into Lead-In and Lead-Out : No
Fill up missing offset samples with silence : Yes
Delete leading and trailing silent blocks : No
Null samples used in CRC calculations : Yes
Used interface : Native Win32 interface for Win NT & 2000
Gap handling : Appended to previous track

Used output format : User Defined Encoder
Selected bitrate : 128 kBit/s
Quality : High
Add ID3 tag : No
Command line compressor : C:Program Files (x86)Exact Audio CopyFlacflac.exe
Additional command line options : -V -8 -T "Genre=%genre%" -T "Artist=%artist%" -T "Title=%title%" -T "Album=%albumtitle%" -T "Date=%year%" -T "Tracknumber=%tracknr%" -T "Comment=%comment%" %source% TOC of the extracted CD

Track | Start | Length | Start sector | End sector
---------------------------------------------------------
1 | 0:00.00 | 4:48.57 | 0 | 21656
2 | 4:48.57 | 6:15.00 | 21657 | 49781
3 | 11:03.57 | 8:05.52 | 49782 | 86208
4 | 19:09.34 | 6:11.47 | 86209 | 114080
5 | 25:21.06 | 5:16.49 | 114081 | 137829
6 | 30:37.55 | 5:14.17 | 137830 | 161396
7 | 35:51.72 | 4:58.74 | 161397 | 183820
8 | 40:50.71 | 5:06.58 | 183821 | 206828
9 | 45:57.54 | 6:05.14 | 206829 | 234217
10 | 52:02.68 | 5:27.65 | 234218 | 258807
11 | 57:30.58 | 7:06.34 | 258808 | 290791 Track 1

Filename D:Трeкeр nnm-clubMonty Alexander Trio - Love Me Tender (2011)1. A Beautiful Friendship.wav

Pre-gap length 0:00:02.00

Peak level 100.0 %
Extraction speed 6.1 X
Track quality 100.0 %
Test CRC 54C487EA
Copy CRC 54C487EA
Cannot be verified as accurate (confidence 8) [8CF082DB], AccurateRip returned [12D2A797] (AR v2)
Copy OK

Track 2

Filename D:Трeкeр nnm-clubMonty Alexander Trio - Love Me Tender (2011)2. Can't You See.wav

Pre-gap length 0:00:03.45

Peak level 100.0 %
Extraction speed 7.0 X
Track quality 100.0 %
Test CRC 992E672A
Copy CRC 992E672A
Cannot be verified as accurate (confidence 8) [A6B2DA64], AccurateRip returned [DD308373] (AR v2)
Copy OK

Track 3

Filename D:Трeкeр nnm-clubMonty Alexander Trio - Love Me Tender (2011)3. Come Fly With Me.wav

Pre-gap length 0:00:03.45

Peak level 100.0 %
Extraction speed 7.5 X
Track quality 99.9 %
Test CRC A2560330
Copy CRC A2560330
Cannot be verified as accurate (confidence 8) [D7CC19C0], AccurateRip returned [BC19B216] (AR v2)
Copy OK

Track 4

Filename D:Трeкeр nnm-clubMonty Alexander Trio - Love Me Tender (2011)4. Got To Go.wav

Pre-gap length 0:00:03.44

Peak level 100.0 %
Extraction speed 8.6 X
Track quality 100.0 %
Test CRC 992AC696
Copy CRC 992AC696
Cannot be verified as accurate (confidence 8) [AC0D29BF], AccurateRip returned [8086333D] (AR v2)
Copy OK

Track 5

Filename D:Трeкeр nnm-clubMonty Alexander Trio - Love Me Tender (2011)5. I've Never Been In Love Before.wav

Pre-gap length 0:00:03.45

Peak level 100.0 %
Extraction speed 9.1 X
Track quality 100.0 %
Test CRC 0C73E2D7
Copy CRC 0C73E2D7
Cannot be verified as accurate (confidence 8) [920D6782], AccurateRip returned [5810D729] (AR v2)
Copy OK

Track 6

Filename D:Трeкeр nnm-clubMonty Alexander Trio - Love Me Tender (2011)6. Love Me Tender , A House Is Not A Home.wav

Pre-gap length 0:00:03.45

Peak level 100.0 %
Extraction speed 9.5 X
Track quality 100.0 %
Test CRC 2B2F64EA
Copy CRC 2B2F64EA
Cannot be verified as accurate (confidence 8) [E5571719], AccurateRip returned [54B3D5FA] (AR v2)
Copy OK

Track 7

Filename D:Трeкeр nnm-clubMonty Alexander Trio - Love Me Tender (2011)7. Ruby.wav

Pre-gap length 0:00:03.45

Peak level 99.8 %
Extraction speed 10.0 X
Track quality 100.0 %
Test CRC 332852CE
Copy CRC 332852CE
Cannot be verified as accurate (confidence 8) [54D6B0AB], AccurateRip returned [B0BA838B] (AR v2)
Copy OK

Track 8

Filename D:Трeкeр nnm-clubMonty Alexander Trio - Love Me Tender (2011)8. Sweet Lady.wav

Pre-gap length 0:00:03.45

Peak level 100.0 %
Extraction speed 9.4 X
Track quality 99.9 %
Test CRC F0F2C5FB
Copy CRC F0F2C5FB
Cannot be verified as accurate (confidence 8) [4FED93C3], AccurateRip returned [78B9FDD2] (AR v2)
Copy OK

Track 9

Filename D:Трeкeр nnm-clubMonty Alexander Trio - Love Me Tender (2011)9. Used To Be Jackson.wav

Pre-gap length 0:00:03.45

Peak level 100.0 %
Extraction speed 10.1 X
Track quality 99.9 %
Test CRC C6688DA2
Copy CRC C6688DA2
Cannot be verified as accurate (confidence 8) [29F322CF], AccurateRip returned [D85EFFF8] (AR v2)
Copy OK

Track 10

Filename D:Трeкeр nnm-clubMonty Alexander Trio - Love Me Tender (2011)10. You Call It Madness.wav

Pre-gap length 0:00:03.45

Peak level 100.0 %
Extraction speed 11.3 X
Track quality 100.0 %
Test CRC 6E21ACD8
Copy CRC 6E21ACD8
Cannot be verified as accurate (confidence 8) [273853E3], AccurateRip returned [3FB67388] (AR v2)
Copy OK

Track 11

Filename D:Трeкeр nnm-clubMonty Alexander Trio - Love Me Tender (2011)11. We've Only Just Begun.wav

Pre-gap length 0:00:03.45

Peak level 100.0 %
Extraction speed 12.0 X
Track quality 100.0 %
Test CRC A9FC3AF1
Copy CRC A9FC3AF1
Cannot be verified as accurate (confidence 8) [D4E32339], AccurateRip returned [71000823] (AR v2)
Copy OK No tracks could be verified as accurate
You may have a different pressing from the one(s) in the database

No errors occurred

End of status report

==== Log checksum 2305524D06C5639010ABAD015125526319F04B450D8AE0EED2ADEC09D1ED4C88 ====

Dynamic Range Analysis

--------------------------------------------------------------------------------
Analyzed: Monty Alexander Trio / Love Me Tender
--------------------------------------------------------------------------------

DR Peak RMS Duration Track
--------------------------------------------------------------------------------
DR6 0.00 dB -7.09 dB 4:49 01-A Beautiful Friendship
DR6 0.00 dB -7.25 dB 6:15 02-Can't You See
DR6 0.00 dB -7.34 dB 8:06 03-Come Fly With Me
DR6 0.00 dB -8.04 dB 6:12 04-Got To Go
DR6 0.00 dB -6.93 dB 5:17 05-I've Never Been In Love Before
DR7 0.00 dB -8.24 dB 5:14 06-Love Me Tender / A House Is Not A Home
DR6 -0.01 dB -7.99 dB 4:59 07-Ruby
DR6 0.00 dB -7.49 dB 5:07 08-Sweet Lady
DR7 0.00 dB -8.28 dB 6:05 09-Used To Be Jackson
DR7 0.00 dB -7.91 dB 5:28 10-You Call It Madness
DR6 0.00 dB -7.42 dB 7:06 11-We've Only Just Begun
--------------------------------------------------------------------------------

Number of tracks: 11
Official DR value: DR6

Samplerate: 44100 Hz
Channels: 2
Bits per sample: 16
Bitrate: 975 kbps
Codec: FLAC
================================================================================



Rip by ssagwebster



In The Name Of Love 2011 | I Love Jenni 2011 | Venus In Love | To Love Somebody 2011 | Monty Python S The Meaning Of Life Monty Python | I Love Bachata 2011 | P S I Love You 2011 | A Women In Love 2011 | Your Love Never Fails 2011 | 100 Percent Love 2011
Monty Alexander Trio - Love Me Tender (2011) Venus Torrent Download with keygen, crack, serial, dvdrip, hdrip, HD, 720p, 1024p, 2016, 2015