Les 39 marches | Samantha Shannon | Watch movie

Keith Jarrett - Samuel Barber Bela Bartok Keith Jarrett (2015) ECM

New Download Links
Speed
 kbps
 kbps
 kbps

Keith Jarrett - Samuel Barber, Bela Bartok, Keith Jarrett (2015) {ECM}
EAC rip (secure mode) | FLAC (tracks)+CUE+LOG -> 279 Mb | MP3 @320 -> 140 Mb
Full Artwork @ 600 dpi (png) -> 389 Mb | 5% repair rar
© 2015 ECM Records | ECM New Series 2445
Classical / Piano

Never-heard music from the mighty Keith Jarrett – performances recorded in the mid 80s, and featuring Jarrett working in a mix of jazz and classical styles that's pretty darn great! The first piece is Samuel Barber's "Piano Concerto Op 38", performed with the Rundfunk Sinfonieorchester, conducted by Dennis Russell Davies – but Jarrett's performance brings an edge and sense of air that recalls some of his own compositions for larger groups from the 70s, especially with Davie at the helm.

Next is Bela Bartok's "Piano Concerto No 3", recorded in Japan with the New Japan Philharmonic, Kazuyoshi Akiyama conducting – a piece that's full of tremendous color and light in Jarrett's hands, maybe more so than we remember from other recordings of the work. Last up is a solo Jarrett improvisation from the same performance – a really lovely, lyrical tune titled "Nothing But A Dream".



ECM INFO

Personnel:
Keith Jarrett: piano

Rundfunk-Sinfonieorchester Saarbrücken
Dennis Russell Davies: conductor

New Japan Philharmonic
Kazuyoshi Akiyama: conductor

tracklist:
01 - Samuel Barber - Piano Concerto op. 38 - I Allegro appassionato
02 - Samuel Barber - Piano Concerto op. 38 - II Canzone, Moderato
03 - Samuel Barber - Piano Concerto op. 38 - III Allegro molto
04 - Bela Bartok - Piano Concerto No. 3 - I Allegretto
05 - Bela Bartok - Piano Concerto No. 3 - II Adagio religioso
06 - Bela Bartok - Piano Concerto No. 3 - III Allegro vivace
07 - Keith Jarrett - Tokyo Encore - Nothing But A Dream

EAC log
Exact Audio Copy V1.0 beta 3 from 29. August 2011

EAC extraction logfile from 11. May 2015, 23:23

Keith Jarrett / Samuel Barber, Bela Bartok, Keith Jarrett

Used drive : PLEXTOR BD-R PX-B950SA Adapter: 3 ID: 0

Read mode : Secure
Utilize accurate stream : Yes
Defeat audio cache : Yes
Make use of C2 pointers : No

Read offset correction : 6
Overread into Lead-In and Lead-Out : No
Fill up missing offset samples with silence : Yes
Delete leading and trailing silent blocks : No
Null samples used in CRC calculations : Yes
Used interface : Native Win32 interface for Win NT & 2000
Gap handling : Appended to previous track

Used output format : User Defined Encoder
Selected bitrate : 1024 kBit/s
Quality : High
Add ID3 tag : No
Command line compressor : C:Program Files (x86)Exact Audio CopyFlacflac.exe
Additional command line options : -8 -V -T "ARTIST=%artist%" -T "TITLE=%title%" -T "ALBUM=%albumtitle%" -T "DATE=%year%" -T "TRACKNUMBER=%tracknr%" -T "TOTALTRACKS=%numtracks%" -T "GENRE=%genre%" -T "ALBUMARTIST=%albumartist%" -T "ALBUM ARTIST=%albumartist%" -T "COMMENT=EAC Secure Mode, Test & Copy, AccurateRip, FLAC -8" %source% TOC of the extracted CD

Track | Start | Length | Start sector | End sector
---------------------------------------------------------
1 | 0:00.00 | 12:32.13 | 0 | 56412
2 | 12:32.13 | 6:16.52 | 56413 | 84664
3 | 18:48.65 | 8:01.69 | 84665 | 120808
4 | 26:50.59 | 7:42.25 | 120809 | 155483
5 | 34:33.09 | 10:16.02 | 155484 | 201685
6 | 44:49.11 | 9:08.24 | 201686 | 242809
7 | 53:57.35 | 4:52.35 | 242810 | 264744 Track 1

Filename Z:Keith Jarrett - Samuel Barber, Bela Bartok, Keith Jarrett (2015) (FLAC)1 - Samuel Barber - Piano Concerto op. 38 - I Allegro appassionato.wav

Pre-gap length 0:00:02.00

Peak level 99.9 %
Extraction speed 2.4 X
Track quality 100.0 %
Test CRC 9FBDCA9B
Copy CRC 9FBDCA9B
Track not present in AccurateRip database
Copy OK

Track 2

Filename Z:Keith Jarrett - Samuel Barber, Bela Bartok, Keith Jarrett (2015) (FLAC)2 - Samuel Barber - Piano Concerto op. 38 - II Canzone, Moderato.wav

Peak level 29.6 %
Extraction speed 2.8 X
Track quality 100.0 %
Test CRC 5777CFB9
Copy CRC 5777CFB9
Track not present in AccurateRip database
Copy OK

Track 3

Filename Z:Keith Jarrett - Samuel Barber, Bela Bartok, Keith Jarrett (2015) (FLAC)3 - Samuel Barber - Piano Concerto op. 38 - III Allegro molto.wav

Peak level 88.7 %
Extraction speed 3.2 X
Track quality 100.0 %
Test CRC 3BD7837D
Copy CRC 3BD7837D
Track not present in AccurateRip database
Copy OK

Track 4

Filename Z:Keith Jarrett - Samuel Barber, Bela Bartok, Keith Jarrett (2015) (FLAC)4 - Bela Bartok - Piano Concerto No. 3 - I Allegretto.wav

Pre-gap length 0:00:04.56

Peak level 67.9 %
Extraction speed 3.5 X
Track quality 100.0 %
Test CRC 03BCAA6D
Copy CRC 03BCAA6D
Track not present in AccurateRip database
Copy OK

Track 5

Filename Z:Keith Jarrett - Samuel Barber, Bela Bartok, Keith Jarrett (2015) (FLAC)5 - Bela Bartok - Piano Concerto No. 3 - II Adagio religioso.wav

Peak level 55.9 %
Extraction speed 3.8 X
Track quality 100.0 %
Test CRC B9406488
Copy CRC B9406488
Track not present in AccurateRip database
Copy OK

Track 6

Filename Z:Keith Jarrett - Samuel Barber, Bela Bartok, Keith Jarrett (2015) (FLAC)6 - Bela Bartok - Piano Concerto No. 3 - III Allegro vivace.wav

Peak level 73.5 %
Extraction speed 4.1 X
Track quality 100.0 %
Test CRC A04D452F
Copy CRC A04D452F
Track not present in AccurateRip database
Copy OK

Track 7

Filename Z:Keith Jarrett - Samuel Barber, Bela Bartok, Keith Jarrett (2015) (FLAC)7 - Keith Jarrett - Tokyo Encore - Nothing But A Dream.wav

Peak level 48.8 %
Extraction speed 4.1 X
Track quality 100.0 %
Test CRC D3D88F3C
Copy CRC D3D88F3C
Track not present in AccurateRip database
Copy OK None of the tracks are present in the AccurateRip database

No errors occurred

End of status report

---- CUETools DB Plugin V2.1.3

[CTDB TOCID: mSp1vCnftdwPXDb0kz6myWrbP6Q-] found, Submit result: mSp1vCnftdwPXDb0kz6myWrbP6Q- has been confirmed
[da3494b6] (3/3) Accurately ripped ==== Log checksum 25BED80BCAEB13C3CEAADFC0E9C3A7F4E82F6DD6F5DECBEDCE56548E76105A5E ====





All thanks goes to the original releaser!



Keith Jarrett The Koln Concert | Keith Jarrett Flac | Shades Keith Jarrett | Keith Jarrett Staircase | Keith Jarrett Somewhere | Keith Jarrett Flac | Keith Jarrett Standard | Keith Jarrett 2006 | Keith Jarrett Japan | Keith Jarrett 320
Keith Jarrett - Samuel Barber Bela Bartok Keith Jarrett (2015) ECM Torrent Download with keygen, crack, serial, dvdrip, hdrip, HD, 720p, 1024p, 2016, 2015