Our Reliance on Computers - 2052 Words | Kenny Dalglish | Kewal Timro Lagi Yo.mp3 (2017-10-09)

Kitaro - Asian Cafe (2002)

New Download Links
Speed
 kbps
 kbps
 kbps

Kitaro - Asian Café (2002)
EAC | FLAC | Tracks (Cue&Log) ~ 354 Mb (incl 5%) | Scans included | Time: 01:02:17
Genre: Ethnic Fusion, New Age, Progressive Electronic | Label: Dreamusic | # MUCD-1055

The english title of this 15-track compilation is in fact "Asian Café", and gathers 15 tracks from KITARO's solo albums, up to the great "Ancient" and "An Ancient Journey" albums. It also includes 2 tracks from the "Kitaro's World Of Music Featuring Yu-Xiao Guang" album. As is the tradition with most of KITARO's albums, the tracks are generally linked without pause in sound. This album covers many albums from the "Geffen" label era, without presenting anything unreleased... It makes for an expensive "best of", so perhaps a more affordable album like "Ten Years" or "Thinking Of You" makes for a better introduction this to this man's spiritual music...

Review by eveoflove, Amazon.com





Tracklist:

01. Planet (01:56)
02. Linden (04:19)
03. Unicorn (03:44)
04. Legend of the Road (04:30)
05. Ancient of Wind (01:57)
06. Nageki (05:41)
07. Fairy of Water (04:16)
08. Peace (03:21)
09. The Field (04:49)
10. A Drop of Silence (02:51)
11. Sumerian Magic (03:11)
12. Harmony of the Forest (06:21)
13. Stream (05:40)
14. Wave of Sand (04:48)
15. Moondance (04:44)


EAC log
Exact Audio Copy V1.0 beta 6 from 9. April 2015

EAC extraction logfile from 23. April 2015, 23:17

Kitaro / Asian Cafe

Used drive : ATAPI iHAS124 B Adapter: 1 ID: 0

Read mode : Secure
Utilize accurate stream : Yes
Defeat audio cache : Yes
Make use of C2 pointers : No

Read offset correction : 6
Overread into Lead-In and Lead-Out : No
Fill up missing offset samples with silence : Yes
Delete leading and trailing silent blocks : No
Null samples used in CRC calculations : Yes
Used interface : Native Win32 interface for Win NT & 2000
Gap handling : Appended to previous track

Used output format : User Defined Encoder
Selected bitrate : 768 kBit/s
Quality : High
Add ID3 tag : No
Command line compressor : C:Program Files (x86)Exact Audio CopyFLACFLAC.EXE
Additional command line options : -8 -V -T "ARTIST=%artist%" -T "TITLE=%title%" -T "ALBUM=%albumtitle%" -T "DATE=%year%" -T "TRACKNUMBER=%tracknr%" -T "GENRE=%genre%" -T "COMMENT=%comment%" -T "BAND=%albuminterpret%" -T "ALBUMARTIST=%albuminterpret%" -T "COMPOSER=%composer%" %haslyrics%--tag-from-file=LYRICS="%lyricsfile%"%haslyrics% -T "DISCNUMBER=%cdnumber%" -T "TOTALDISCS=%totalcds%" -T "TOTALTRACKS=%numtracks%" %hascover%--picture="%coverfile%"%hascover% %source% -o %dest% TOC of the extracted CD

Track | Start | Length | Start sector | End sector
---------------------------------------------------------
1 | 0:00.00 | 1:56.40 | 0 | 8739
2 | 1:56.40 | 4:19.17 | 8740 | 28181
3 | 6:15.57 | 3:44.08 | 28182 | 44989
4 | 9:59.65 | 4:30.02 | 44990 | 65241
5 | 14:29.67 | 1:57.05 | 65242 | 74021
6 | 16:26.72 | 5:41.60 | 74022 | 99656
7 | 22:08.57 | 4:16.53 | 99657 | 118909
8 | 26:25.35 | 3:21.62 | 118910 | 134046
9 | 29:47.22 | 4:49.55 | 134047 | 155776
10 | 34:37.02 | 2:51.70 | 155777 | 168671
11 | 37:28.72 | 3:11.15 | 168672 | 183011
12 | 40:40.12 | 6:21.40 | 183012 | 211626
13 | 47:01.52 | 5:40.35 | 211627 | 237161
14 | 52:42.12 | 4:48.43 | 237162 | 258804
15 | 57:30.55 | 4:44.62 | 258805 | 280166 Track 1

Filename E:Music_Kitaro2002 - Asian Cafe1-Planet.wav

Pre-gap length 0:00:02.00

Peak level 99.9 %
Extraction speed 1.5 X
Track quality 99.9 %
Test CRC E61DD8AE
Copy CRC E61DD8AE
Track not present in AccurateRip database
Copy OK

Track 2

Filename E:Music_Kitaro2002 - Asian Cafe2-Linden.wav

Peak level 99.9 %
Extraction speed 2.8 X
Track quality 100.0 %
Test CRC 08FE6897
Copy CRC 08FE6897
Track not present in AccurateRip database
Copy OK

Track 3

Filename E:Music_Kitaro2002 - Asian Cafe3-Unicorn.wav

Peak level 99.9 %
Extraction speed 2.3 X
Track quality 99.9 %
Test CRC 85786EF7
Copy CRC 85786EF7
Track not present in AccurateRip database
Copy OK

Track 4

Filename E:Music_Kitaro2002 - Asian Cafe4-Legend of the Road.wav

Peak level 99.9 %
Extraction speed 3.3 X
Track quality 100.0 %
Test CRC 7683B049
Copy CRC 7683B049
Track not present in AccurateRip database
Copy OK

Track 5

Filename E:Music_Kitaro2002 - Asian Cafe5-Ancient of Wind.wav

Peak level 99.9 %
Extraction speed 3.0 X
Track quality 100.0 %
Test CRC 854E0244
Copy CRC 854E0244
Track not present in AccurateRip database
Copy OK

Track 6

Filename E:Music_Kitaro2002 - Asian Cafe6-Nageki.wav

Peak level 99.9 %
Extraction speed 3.8 X
Track quality 100.0 %
Test CRC 33B8A51B
Copy CRC 33B8A51B
Track not present in AccurateRip database
Copy OK

Track 7

Filename E:Music_Kitaro2002 - Asian Cafe7-Fairy of Water.wav

Peak level 99.9 %
Extraction speed 3.9 X
Track quality 100.0 %
Test CRC 2FC461FF
Copy CRC 2FC461FF
Track not present in AccurateRip database
Copy OK

Track 8

Filename E:Music_Kitaro2002 - Asian Cafe8-Peace.wav

Peak level 99.9 %
Extraction speed 3.0 X
Track quality 99.9 %
Test CRC 913BCA61
Copy CRC 913BCA61
Track not present in AccurateRip database
Copy OK

Track 9

Filename E:Music_Kitaro2002 - Asian Cafe9-The Field.wav

Peak level 99.9 %
Extraction speed 4.4 X
Track quality 100.0 %
Test CRC AA2FDA8A
Copy CRC AA2FDA8A
Track not present in AccurateRip database
Copy OK

Track 10

Filename E:Music_Kitaro2002 - Asian Cafe10-A Drop of Silence.wav

Peak level 99.9 %
Extraction speed 4.2 X
Track quality 100.0 %
Test CRC E87C09D6
Copy CRC E87C09D6
Track not present in AccurateRip database
Copy OK

Track 11

Filename E:Music_Kitaro2002 - Asian Cafe11-Sumerian Magic.wav

Peak level 99.9 %
Extraction speed 3.3 X
Track quality 99.9 %
Test CRC 382AB278
Copy CRC 382AB278
Track not present in AccurateRip database
Copy OK

Track 12

Filename E:Music_Kitaro2002 - Asian Cafe12-Harmony of the Forest.wav

Peak level 99.9 %
Extraction speed 5.0 X
Track quality 100.0 %
Test CRC AFB83D89
Copy CRC AFB83D89
Track not present in AccurateRip database
Copy OK

Track 13

Filename E:Music_Kitaro2002 - Asian Cafe13-Stream.wav

Peak level 99.9 %
Extraction speed 5.2 X
Track quality 100.0 %
Test CRC 774C7B7B
Copy CRC 774C7B7B
Track not present in AccurateRip database
Copy OK

Track 14

Filename E:Music_Kitaro2002 - Asian Cafe14-Wave of Sand.wav

Peak level 99.9 %
Extraction speed 5.3 X
Track quality 100.0 %
Test CRC AEC3D1AA
Copy CRC AEC3D1AA
Track not present in AccurateRip database
Copy OK

Track 15

Filename E:Music_Kitaro2002 - Asian Cafe15-Moondance.wav

Peak level 99.9 %
Extraction speed 5.4 X
Track quality 100.0 %
Test CRC 743F56C2
Copy CRC 743F56C2
Track not present in AccurateRip database
Copy OK None of the tracks are present in the AccurateRip database

No errors occurred

End of status report

---- CUETools DB Plugin V2.1.6

[CTDB TOCID: q07WvqvRX1soybi.2KisARX3g94-] found
Submit result: q07WvqvRX1soybi.2KisARX3g94- has been confirmed
Track | CTDB Status
1 | (2/2) Accurately ripped
2 | (2/2) Accurately ripped
3 | (2/2) Accurately ripped
4 | (2/2) Accurately ripped
5 | (2/2) Accurately ripped
6 | (2/2) Accurately ripped
7 | (2/2) Accurately ripped
8 | (2/2) Accurately ripped
9 | (2/2) Accurately ripped
10 | (2/2) Accurately ripped
11 | (2/2) Accurately ripped
12 | (2/2) Accurately ripped
13 | (2/2) Accurately ripped
14 | (2/2) Accurately ripped
15 | (2/2) Accurately ripped ==== Log checksum 9D3915BE8616EF8E8A9B004BDF38424699B5749FAFFC36B887B7A2106B9D4E6C ====

DR log
foobar2000 1.3.8 / Dynamic Range Meter 1.1.1
log date: 2015-05-18 17:10:45

--------------------------------------------------------------------------------
Analyzed: Kitaro / Asian Cafe
--------------------------------------------------------------------------------

DR Peak RMS Duration Track
--------------------------------------------------------------------------------
DR10 0.00 dB -14.95 dB 1:57 01-Planet
DR14 0.00 dB -19.79 dB 4:19 02-Linden
DR14 0.00 dB -17.57 dB 3:44 03-Unicorn
DR10 0.00 dB -14.63 dB 4:30 04-Legend of the Road
DR10 0.00 dB -15.45 dB 1:57 05-Ancient of Wind
DR11 0.00 dB -15.91 dB 5:42 06-Nageki
DR11 0.00 dB -14.18 dB 4:17 07-Fairy of Water
DR13 0.00 dB -17.77 dB 3:22 08-Peace
DR12 0.00 dB -15.08 dB 4:50 09-The Field
DR13 0.00 dB -19.42 dB 2:52 10-A Drop of Silence
DR7 0.00 dB -9.73 dB 3:11 11-Sumerian Magic
DR13 0.00 dB -16.35 dB 6:22 12-Harmony of the Forest
DR11 0.00 dB -14.29 dB 5:40 13-Stream
DR9 0.00 dB -12.11 dB 4:49 14-Wave of Sand
DR11 0.00 dB -13.87 dB 4:45 15-Moondance
--------------------------------------------------------------------------------

Number of tracks: 15
Official DR value: DR11

Samplerate: 44100 Hz
Channels: 2
Bits per sample: 16
Bitrate: 784 kbps
Codec: FLAC
================================================================================







Gegege No Kitaro | Asian Woman | Tasting Asian Snacks | Asian Woman | Crazy Asian Gfs | Management Accounting Asian Perspective | Best Of Cafe Del Mar | Kitaro Ultimate | Cafe Del Mar 2 Vol | The Cafe 720
Kitaro - Asian Cafe (2002) Torrent Download with keygen, crack, serial, dvdrip, hdrip, HD, 720p, 1024p, 2016, 2015