David Steen | Slow Start | Celui qui aimait les cheesecakes

The Salsoul Orchestra - The Salsoul Orchestra (1975) 2012 Big Break Records Remaster

New Download Links
Speed
 kbps
 kbps
 kbps

The Salsoul Orchestra - The Salsoul Orchestra (1975) {2012 Big Break Records Remaster}
EAC rip (secure mode) | FLAC (tracks)+CUE+LOG -> 386 Mb | MP3 @320 -> 134 Mb
Full Artwork @ 300 dpi (png) -> 55 Mb | 5% repair rar
© 2012 Big Break Records / Cherry Red / Verse Music | CDBBR 0101
R'n'B / Funk / Disco / Philly Soul

THE SALSOUL ORCHESTRA - as well as being the legendary backing band for many of the Salsoul Records artists - were a highly successful act in their own right. Throughout their career they consisted of up to 50 members (many of whom were also standing members of MFSB – Philadelphia Internationals house band). They released eleven successful albums on Salsoul Records over a seven year period.

BBR are delighted to release an expanded re-master of THE SALSOUL ORCHESTRA, their debut LP from 1975. The album features the amazing singles ‘Salsoul Hustle’ (R&B #44/Pop #76), ‘Tangerine’ (R&B #36/Pop #18) and ‘You’re Just The Right Size’ (R&B #76/Pop #88) which also featured ‘Chicago Bus Stop (Ooh I Love It)’ as a B-side. The track went on to be regarded as a Dance classic.
BBR is delighted to launch our extensive program of expanded CD re-masters from the legendary SALSOUL label. These in demand titles have been out of print for almost two decades.



BBR INFO

tracklist:
01. Salsoul Hustle
02. Get Happy
03. Chicago Bus Stop (Ooh, I Love It)
04. You re Just The Right Size
05. Tangerine
06. Tale Of Three Cities
07. Salsoul Rainbow
08. Love Letters
09. Salsoul Hustle (Single Version)
10. Tangerine (Single Version)
11. You re Just The Right Size (Single Version)
12. Chicago Bus Stop (Ooh, I Love It) (Single Version)
13. Salsoul Hustle (disco version)

EAC log
Exact Audio Copy V1.0 beta 3 from 29. August 2011

EAC extraction logfile from 21. March 2013, 22:13

The Salsoul Orchestra / The Salsoul Orchestra

Used drive : hp CDDVDW SN-208BB Adapter: 0 ID: 1

Read mode : Secure
Utilize accurate stream : Yes
Defeat audio cache : Yes
Make use of C2 pointers : No

Read offset correction : 6
Overread into Lead-In and Lead-Out : No
Fill up missing offset samples with silence : Yes
Delete leading and trailing silent blocks : No
Null samples used in CRC calculations : Yes
Used interface : Native Win32 interface for Win NT & 2000
Gap handling : Appended to previous track

Used output format : User Defined Encoder
Selected bitrate : 256 kBit/s
Quality : High
Add ID3 tag : No
Command line compressor : C:Program Files (x86)Exact Audio CopyFlacflac.exe
Additional command line options : -8 -V -T "ARTIST=%artist%" -T "TITLE=%title%" -T "ALBUM=%albumtitle%" -T "DATE=%year%" -T "TRACKNUMBER=%tracknr%" -T "TOTALTRACKS=%numtracks%" -T "GENRE=%genre%" -T "ALBUMARTIST=%albumartist%" -T "ALBUM ARTIST=%albumartist%" -T "COMMENT=EAC Secure Mode, Test & Copy, AccurateRip, FLAC -8" %source% TOC of the extracted CD

Track | Start | Length | Start sector | End sector
---------------------------------------------------------
1 | 0:00.00 | 5:20.65 | 0 | 24064
2 | 5:20.65 | 3:08.53 | 24065 | 38217
3 | 8:29.43 | 4:50.69 | 38218 | 60036
4 | 13:20.37 | 4:44.32 | 60037 | 81368
5 | 18:04.69 | 4:43.26 | 81369 | 102619
6 | 22:48.20 | 6:12.62 | 102620 | 130581
7 | 29:01.07 | 4:10.69 | 130582 | 149400
8 | 33:12.01 | 3:41.27 | 149401 | 166002
9 | 36:53.28 | 3:32.04 | 166003 | 181906
10 | 40:25.32 | 3:23.66 | 181907 | 197197
11 | 43:49.23 | 3:15.08 | 197198 | 211830
12 | 47:04.31 | 3:02.49 | 211831 | 225529
13 | 50:07.05 | 6:36.63 | 225530 | 255292 Track 1

Filename C:1 - Salsoul Hustle .wav

Pre-gap length 0:00:02.00

Peak level 96.6 %
Extraction speed 2.4 X
Track quality 100.0 %
Test CRC 296DC70C
Copy CRC 296DC70C
Track not present in AccurateRip database
Copy OK

Track 2

Filename C:2 - Get Happy .wav

Pre-gap length 0:00:01.66

Peak level 96.6 %
Extraction speed 2.5 X
Track quality 100.0 %
Test CRC 8CBD6F82
Copy CRC 8CBD6F82
Track not present in AccurateRip database
Copy OK

Track 3

Filename C:3 - Chicago Bus Stop (Ooh I Love It) .wav

Pre-gap length 0:00:01.27

Peak level 96.6 %
Extraction speed 2.8 X
Track quality 100.0 %
Test CRC 832F2938
Copy CRC 832F2938
Track not present in AccurateRip database
Copy OK

Track 4

Filename C:4 - You're Just The Right Size .wav

Pre-gap length 0:00:01.24

Peak level 96.6 %
Extraction speed 3.1 X
Track quality 100.0 %
Test CRC 28A7BD6C
Copy CRC 28A7BD6C
Track not present in AccurateRip database
Copy OK

Track 5

Filename C:5 - Tangerine .wav

Pre-gap length 0:00:01.22

Peak level 96.6 %
Extraction speed 3.3 X
Track quality 100.0 %
Test CRC CC688333
Copy CRC CC688333
Track not present in AccurateRip database
Copy OK

Track 6

Filename C:6 - Tale Of Three Cities .wav

Pre-gap length 0:00:01.00

Peak level 96.6 %
Extraction speed 3.1 X
Track quality 99.9 %
Test CRC B6DCD4B9
Copy CRC B6DCD4B9
Track not present in AccurateRip database
Copy OK

Track 7

Filename C:7 - Salsoul Rainbow .wav

Pre-gap length 0:00:01.51

Peak level 96.6 %
Extraction speed 3.6 X
Track quality 100.0 %
Test CRC DEDAB0CA
Copy CRC DEDAB0CA
Track not present in AccurateRip database
Copy OK

Track 8

Filename C:8 - Love Letters .wav

Pre-gap length 0:00:01.38

Peak level 96.6 %
Extraction speed 3.7 X
Track quality 100.0 %
Test CRC F1A9FFA5
Copy CRC F1A9FFA5
Track not present in AccurateRip database
Copy OK

Track 9

Filename C:9 - Salsoul Hustle (Single Version) .wav

Pre-gap length 0:00:04.02

Peak level 96.6 %
Extraction speed 3.8 X
Track quality 100.0 %
Test CRC B02F7348
Copy CRC B02F7348
Track not present in AccurateRip database
Copy OK

Track 10

Filename C:10 - Tangerine (Single Version) .wav

Pre-gap length 0:00:02.00

Peak level 96.6 %
Extraction speed 3.9 X
Track quality 100.0 %
Test CRC 710740CE
Copy CRC 710740CE
Track not present in AccurateRip database
Copy OK

Track 11

Filename C:11 - You're Just The Right Size (Single Version) .wav

Pre-gap length 0:00:01.43

Peak level 95.4 %
Extraction speed 4.0 X
Track quality 100.0 %
Test CRC D2F41E6A
Copy CRC D2F41E6A
Track not present in AccurateRip database
Copy OK

Track 12

Filename C:12 - Chicago Bus Stop (Single Version) .wav

Pre-gap length 0:00:01.74

Peak level 96.6 %
Extraction speed 4.0 X
Track quality 100.0 %
Test CRC E3D81973
Copy CRC E3D81973
Track not present in AccurateRip database
Copy OK

Track 13

Filename C:13 - Salsoul Hustle (Disco Version) .wav

Pre-gap length 0:00:01.19

Peak level 100.0 %
Extraction speed 4.6 X
Track quality 100.0 %
Test CRC A41C0846
Copy CRC A41C0846
Track not present in AccurateRip database
Copy OK None of the tracks are present in the AccurateRip database

No errors occurred

End of status report

==== Log checksum B5EBCA822027E9B51EE774FE9FEC2C2FDA284F07924B5F6F580F99064471FA4A ====





All thanks goes to the original releaser!



NEXT -> More Big Break Records Remaster...




Emotive Orchestra | Orchestra | Best Orchestra Of World | Red Orchestra Ostfront 41 45 | Orchestra Brass Vst | Orchestra And Malmsteen | Steve Vai Orchestra | The Symphonic Orchestra | Ql Symphonic Orchestra | The Classic Night Orchestra
The Salsoul Orchestra - The Salsoul Orchestra (1975) 2012 Big Break Records Remaster Torrent Download with keygen, crack, serial, dvdrip, hdrip, HD, 720p, 1024p, 2016, 2015