La Bella y La Bestia TS-Screener | HDRip 2016 Смертельные поля · 2016 | Fairy Tail 2014 (Fairy Tail Season 2) | 720p | BDRip | Dual Audio | x265

The Wood Brothers - Loaded (2008)

New Download Links
Speed
 kbps
 kbps
 kbps

The Wood Brothers - Loaded (2008)
EAC Rip | FLAC (Image) + CUE + LOG | Covers | 265 MB
Genre: Folk/Alternative Folk/Blues | Label: Blue Note | Catalog Number: 963652
RAR 5% Rec. | FilePost + Rapidshare | Release Date: April 1, 2008

A Wood Brothers record will always be a fail-safe purchase, the reason being that the musical instincts of Chris and Oliver Wood are as solid and unyielding as a 100-year-old oak. Loaded, the duo's second full-length, satisfies wholly, living up to and maybe past the promise of 2006's Ways Not to Lose. The biggest, most noticeable change is the depth of the songwriting: from the wistful, clear-eyed opening song, "Lovin' Arms," to the tender-hearted "Walkaway" to the quietly introspective closer, "Still Close," the brothers, who co-wrote for the first time on Loaded, reveal a range of feeling as broad and earthily sophisticated as their jazz- and blues-flecked riffs. Soul, not the sound but the entity, is a major component too: while most non-reggae artists falter hopelessly when attempting to switch gears and adopt the genre's sunshiny vibe, the Woods readily access a genuine breezy streak on "Angel," a cover of the Jimi Hendrix classic helped along by buddy Amos Lee. Another cover, of Dylan's "Bucket of Rain," also works a kind of authentic, deep-down magic -- the Woods claim it fully but somehow respectfully. But there is one original that captures the imagination and the ear with unrelenting might: "Postcards from Hell," a folky lyrical mini-masterpiece, is a testament to two musicians whose chemistry is so potent it ought to be bottled.--by Tammy La Gorce


------------
Tracklist
------------
1. Lovin' Arms 3:20
2. Postcards From Hell 4:44
3. Pray Enough 3:32
4. Loaded 3:49
5. Walk Away 4:13
6. Don't Look Back (feat. Frazey Ford) 3:45
7. Twisted 4:08
8. Fall Too Fast 3:49
9. Angel (feat. Amos Lee) 4:08
10. Buckets of Rain 3:26
11. Make Me Down a Pallet On Your Floor 3:40
12. Still Close 3:40



EAC LOG
Exact Audio Copy V1.0 beta 3 from 29. August 2011

EAC extraction logfile from 8. August 2012, 11:34

The Wood Brothers / Loaded

Used drive : ASUS DRW-24B1LT Adapter: 3 ID: 0

Read mode : Secure
Utilize accurate stream : Yes
Defeat audio cache : Yes
Make use of C2 pointers : No

Read offset correction : 6
Overread into Lead-In and Lead-Out : No
Fill up missing offset samples with silence : Yes
Delete leading and trailing silent blocks : No
Null samples used in CRC calculations : Yes
Used interface : Native Win32 interface for Win NT & 2000

Used output format : User Defined Encoder
Selected bitrate : 1024 kBit/s
Quality : High
Add ID3 tag : Yes
Command line compressor : C:Program FilesExact Audio CopyFlacflac.exe
Additional command line options : -6 -V -T "ARTIST=%artist%" -T "TITLE=%title%" -T "ALBUM=%albumtitle%" -T "DATE=%year%" -T "TRACKNUMBER=%tracknr%" -T "GENRE=%genre%" -T "COMMENT=%comment%" %hascover%--picture="%coverfile%"%hascover% %source% -o %dest% TOC of the extracted CD

Track | Start | Length | Start sector | End sector
---------------------------------------------------------
1 | 0:00.00 | 3:20.24 | 0 | 15023
2 | 3:20.24 | 4:44.65 | 15024 | 36388
3 | 8:05.14 | 3:32.02 | 36389 | 52290
4 | 11:37.16 | 3:49.19 | 52291 | 69484
5 | 15:26.35 | 4:13.53 | 69485 | 88512
6 | 19:40.13 | 3:45.49 | 88513 | 105436
7 | 23:25.62 | 4:08.46 | 105437 | 124082
8 | 27:34.33 | 3:49.17 | 124083 | 141274
9 | 31:23.50 | 4:08.44 | 141275 | 159918
10 | 35:32.19 | 3:26.25 | 159919 | 175393
11 | 38:58.44 | 3:40.52 | 175394 | 191945
12 | 42:39.21 | 3:39.74 | 191946 | 208444 Range status and errors

Selected range

Filename D:MUSIKBLUESThe Wood Brothers - Loaded [FLAC] (2008)The Wood Brothers - Loaded.wav

Peak level 97.8 %
Extraction speed 7.3 X
Range quality 100.0 %
Copy CRC 98F3B05B
Copy OK

No errors occurred


AccurateRip summary

Track 1 cannot be verified as accurate (confidence 15) [40AD8A33], AccurateRip returned [77103E41] (AR v2)
Track 2 cannot be verified as accurate (confidence 15) [84993945], AccurateRip returned [3B23C93C] (AR v2)
Track 3 cannot be verified as accurate (confidence 15) [ECC38C0D], AccurateRip returned [B17C26B5] (AR v2)
Track 4 cannot be verified as accurate (confidence 15) [D665010A], AccurateRip returned [D3022B40] (AR v2)
Track 5 cannot be verified as accurate (confidence 14) [711BE151], AccurateRip returned [88AF40E6] (AR v2)
Track 6 cannot be verified as accurate (confidence 14) [DFF3D51D], AccurateRip returned [B6E11B7F] (AR v2)
Track 7 cannot be verified as accurate (confidence 15) [511D0165], AccurateRip returned [E8D9C088] (AR v2)
Track 8 cannot be verified as accurate (confidence 15) [D5411D2D], AccurateRip returned [A16B45EA] (AR v2)
Track 9 cannot be verified as accurate (confidence 14) [B08D2C77], AccurateRip returned [7AA12D54] (AR v2)
Track 10 cannot be verified as accurate (confidence 14) [3280A292], AccurateRip returned [D6F7EA69] (AR v2)
Track 11 cannot be verified as accurate (confidence 15) [B6935586], AccurateRip returned [221A19EF] (AR v2)
Track 12 cannot be verified as accurate (confidence 14) [F87FDE30], AccurateRip returned [DCF2E5E9] (AR v2)

No tracks could be verified as accurate
You may have a different pressing from the one(s) in the database

End of status report

==== Log checksum 6C19381614FDCE3C9C48DF2DC876C1FEE275021619432F3B9C0273E1295B663B ====


The Wood Brothers - Ways Not To Lose (2006)

In case you encounter dead links in any of my posts, please send me a private message !!!!

NO mirrors and/or direct links in your comments, please !!!!

The files are interchangeable!

****Visit My Blog****

FilePost

Rapidshare

***** Pass: countryfreak *****


Herbie Fully Loaded | Herbie Fully Loaded 1080P | The Brothers 2008 | Herbie Fully Loaded Nl | National Lampoon The Loaded Weapon | Duff Mckagan S Loaded | Jules Jordan Faces Loaded | Loaded The Velvet Underground | The Brothers Bloom 2008 | Herbie Fully Loaded Eng Sub
The Wood Brothers - Loaded (2008) Torrent Download with keygen, crack, serial, dvdrip, hdrip, HD, 720p, 1024p, 2016, 2015