Смотреть онлайн | Семейный очаг | Tim Daly

Solomon Burke - Nothings Impossible (2010)

New Download Links
Speed
 kbps
 kbps
 kbps

Solomon Burke - Nothing's Impossible (2010)
EAC Rip | FLAC (Image) + CUE + LOG | 317 MB | + Covers
Genre: R&B/Soul-Blues | Label: V2 | Catalog Number: VVNL21452 | Release Date: Apr 6, 2010
RAR 5% Rec. | Rapidshare + Filesonic

It's all but impossible to make a bad record with Solomon Burke; as a vocalist, the man is simply a force of nature, and all you have to do is point him in front of a microphone and let him do his stuff and you'll have something worth hearing. But coming up with accompaniment that's worthy of Burke's talents isn't quite as simple, and for a man who cut his teeth working with the likes of Jerry Wexler and Bert Berns, finding the right producer in this day and age is no simple matter. Nothing's Impossible teams Burke with another legend of Southern soul, the great producer, arranger, and songwriter Willie Mitchell (best-known for his work with Al Green) who had been after Burke to make an album with him for years. One listen to Nothing's Impossible confirms that Mitchell's instincts were right on the money; this music has just the right heft and texture for Burke, rich, strong, and gospel-influenced R&B that's sturdy enough to support Burke's earth-shaking vocals while giving the star of the show enough room to move comfortably. Mitchell's subtle, expressive use of strings and horns is very much in evidence here, and the rhythm section cuts a deep, implacable groove. The church has always been one of Burke's strongest vocal influences, and on Nothing's Impossible, Mitchell and his studio crew allow Burke to raise up as much Sunday morning fervor as he needs; on longer numbers like "Dreams" and "It Must Be Love," Burke stretches out like a preacher hitting a groove in front of a congregation, and hearing the King of Rock and Soul get the spirit is a remarkable thing. Burke and Mitchell contributed to the songwriting on these sessions, with both men bringing their A game, and though the notion of Burke covering Anne Murray's hit "You Needed Me" might sound dire, once you hear him do it, it's hard not to be awestruck at the way he brings the old warhorse to life. The sad irony of Nothing's Impossible is that after decades of trying to lure Solomon Burke into his studio, Burke showed up in time for what proved to be Willie Mitchell's final production project, as Mitchell succumbed to heart failure a few months before the album was released. But if this record is Willie Mitchell's final musical offering, Solomon Burke made certain that the man closed out his career on a high note; this is old-school R&B that's smart, passionate, and powerful, and proves the King of Rock and Soul still rules his kingdom with a sure hand.--by Mark Deming


------------
Tracklist
------------
1. Oh What A Feeling 3:55
2. Everything About You 3:38
3. Dreams 6:15
4. Nothing's Impossible 3:18
5. It Must Be Love 5:02
6. You Needed Me 3:46
7. Say You Love Me Too 3:23
8. You're Not Alone 4:03
9. New Company 3:11
10. When You're Not Here 4:28
11. The Error Of My Ways 5:08
12. I'm Leaving 3:34



EAC LOG
Exact Audio Copy V1.0 beta 3 from 29. August 2011

EAC extraction logfile from 14. October 2011, 10:13

Solomon Burke / Nothing's Impossible

Used drive : ASUS DRW-24B1LT Adapter: 3 ID: 0

Read mode : Secure
Utilize accurate stream : Yes
Defeat audio cache : Yes
Make use of C2 pointers : No

Read offset correction : 6
Overread into Lead-In and Lead-Out : No
Fill up missing offset samples with silence : Yes
Delete leading and trailing silent blocks : No
Null samples used in CRC calculations : Yes
Used interface : Native Win32 interface for Win NT & 2000

Used output format : User Defined Encoder
Selected bitrate : 1024 kBit/s
Quality : High
Add ID3 tag : Yes
Command line compressor : C:Program FilesExact Audio CopyFLACFLAC.EXE
Additional command line options : -6 -V -T "ARTIST=%artist%" -T "TITLE=%title%" -T "ALBUM=%albumtitle%" -T "DATE=%year%" -T "TRACKNUMBER=%tracknr%" -T "GENRE=%genre%" -T "COMMENT=%comment%" %hascover%--picture="%coverfile%"%hascover% %source% -o %dest% TOC of the extracted CD

Track | Start | Length | Start sector | End sector
---------------------------------------------------------
1 | 0:00.00 | 3:55.50 | 0 | 17674
2 | 3:55.50 | 3:38.47 | 17675 | 34071
3 | 7:34.22 | 6:15.37 | 34072 | 62233
4 | 13:49.59 | 3:18.00 | 62234 | 77083
5 | 17:07.59 | 5:02.38 | 77084 | 99771
6 | 22:10.22 | 3:46.00 | 99772 | 116721
7 | 25:56.22 | 3:23.36 | 116722 | 131982
8 | 29:19.58 | 4:03.29 | 131983 | 150236
9 | 33:23.12 | 3:11.21 | 150237 | 164582
10 | 36:34.33 | 4:28.15 | 164583 | 184697
11 | 41:02.48 | 5:08.20 | 184698 | 207817
12 | 46:10.68 | 3:32.37 | 207818 | 223754 Range status and errors

Selected range

Filename D:MUSIKSolomon Burke - Nothing's Impossible [FLAC] (2010)Solomon Burke - Nothing's Impossible.wav

Peak level 97.5 %
Extraction speed 7.3 X
Range quality 100.0 %
Copy CRC 87E0AA60
Copy OK

No errors occurred


AccurateRip summary

Track 1 cannot be verified as accurate (confidence 6) [04279DFD], AccurateRip returned [2FBB4BBB] (AR v2)
Track 2 cannot be verified as accurate (confidence 6) [0452B549], AccurateRip returned [A7EF16A5] (AR v2)
Track 3 cannot be verified as accurate (confidence 6) [A7D8A86D], AccurateRip returned [7839CF75] (AR v2)
Track 4 cannot be verified as accurate (confidence 6) [780EAAD5], AccurateRip returned [1D6CDF77] (AR v2)
Track 5 cannot be verified as accurate (confidence 6) [7543FF48], AccurateRip returned [78827D2B] (AR v2)
Track 6 cannot be verified as accurate (confidence 6) [884ED2A6], AccurateRip returned [8DA1E1DD] (AR v2)
Track 7 cannot be verified as accurate (confidence 6) [6D78A7BD], AccurateRip returned [252A519C] (AR v2)
Track 8 cannot be verified as accurate (confidence 6) [DD9909E1], AccurateRip returned [165C6C2B] (AR v2)
Track 9 cannot be verified as accurate (confidence 6) [6DD82EAB], AccurateRip returned [322A58B3] (AR v2)
Track 10 cannot be verified as accurate (confidence 6) [10DABC85], AccurateRip returned [B06FD3C0] (AR v2)
Track 11 cannot be verified as accurate (confidence 6) [19375A6F], AccurateRip returned [35790114] (AR v2)
Track 12 cannot be verified as accurate (confidence 6) [A8D0AD3F], AccurateRip returned [53E50B9E] (AR v2)

No tracks could be verified as accurate
You may have a different pressing from the one(s) in the database

End of status report

==== Log checksum F2A1A5A01455B384C4B370FAAC0BB30B517FED30C74CC6FC751959B0909B4A55 ====


Solomon Burke - If You Need Me & Rock 'n Soul (1998)
Solomon Burke - Live At The House Of Blues (1994)
Solomon Burke - Live At North Sea Jazz 2003 DVD
Solomon Burke - Home Land (1990)

In case you encounter dead links in any of my posts, please send me a private message !!!!

NO mirrors and/or direct links in your comments, please !!!!

****Visit My Blog****

**** Rapidshare ****

Part 1|Part 2|Part 3|Part 4

**** Filesonic ****

Part 1|Part 2|Part 3|Part 4

The files are interchangeable!

***** Pass: countryfreak *****


King Solomon Mines | Burke And Hare 1080P | Solomon Burke Best | Solomon Kane Dvdrip | Solomon Kane 2010 | The Librarian Solomon | The Brothers Solomon | Solomon Kane Mkv | Solomon Kane Audio | The Key Of Solomon
Solomon Burke - Nothings Impossible (2010) Torrent Download with keygen, crack, serial, dvdrip, hdrip, HD, 720p, 1024p, 2016, 2015