Red Nose Day | Сериалы 2017 года | Jeff Rose

Otis Spann - Otis Spanns Chicago Blues (1966) 1994 Testament TCD 5005

New Download Links
Speed
 kbps
 kbps
 kbps

Otis Spann - Otis Spann's Chicago Blues (1966)
EAC Rip | WV (Img) + Cue + Log ~ 214 Mb | MP3 CBR320 ~ 180 Mb
Scans Included (PNG, 300 dpi) | RAR 5% Recovery
Blues | Testament Records | TCD 5005

Recorded in 1965 and 1966, these 15 tracks are divided between solo piano performances and pieces with a full band, with support from guitarist Johnny Young and members of the Muddy Waters Band. The variation in approach means that this isn't the most consistent Spann album, and the material and performances don't rank among his best either, although they're reasonably solid. Includes some of the rare tracks on which Spann played organ rather than piano. ~ Richie Unterberger


Track List:

01. Get Your Hands Out Of My Pocket 02:34
02. Nobody Knows My Troubles 03:24
03. Sarah Street 03:26
04. Worried Life Blues 02:04
05. You Can't Hide 02:36
06. Jack-Knife (Instrumental) 02:54
07. What's On Your Worried Mind? 02:27
08. Vicksburg Blues 04:35
09. Who's Out There? 02:34
10. Spann's Boogie Woogie (Instrumental) 02:13
11. See See Rider 03:03
12. Lovin' You 03:27
13. One-Room Country Shack 02:46
14. Mr. Jelly Roll Baker 03:06
15. G.B. Blues (Instrumental) 02:05

EAC Log
Exact Audio Copy V1.0 beta 3 from 29. August 2011

EAC extraction logfile from 22. January 2013, 12:26

Otis Spann / Otis Spann's Chicago Blues (with James Cotton, Johnny Young, Big Walter Horton, Johnny Shines)

Used drive : HL-DT-STBDDVDRW GBC-H20N Adapter: 1 ID: 0

Read mode : Secure
Utilize accurate stream : Yes
Defeat audio cache : Yes
Make use of C2 pointers : No

Read offset correction : 667
Overread into Lead-In and Lead-Out : No
Fill up missing offset samples with silence : Yes
Delete leading and trailing silent blocks : No
Null samples used in CRC calculations : Yes
Used interface : Native Win32 interface for Win NT & 2000

Used output format : User Defined Encoder
Selected bitrate : 1024 kBit/s
Quality : High
Add ID3 tag : No
Command line compressor : C:Program FilesExact Audio Copywavpack.exe
Additional command line options : -hm %source% %dest% TOC of the extracted CD

Track | Start | Length | Start sector | End sector
---------------------------------------------------------
1 | 0:00.00 | 2:33.65 | 0 | 11539
2 | 2:33.65 | 3:23.50 | 11540 | 26814
3 | 5:57.40 | 3:25.70 | 26815 | 42259
4 | 9:23.35 | 2:03.65 | 42260 | 51549
5 | 11:27.25 | 2:35.57 | 51550 | 63231
6 | 14:03.07 | 2:53.40 | 63232 | 76246
7 | 16:56.47 | 2:27.08 | 76247 | 87279
8 | 19:23.55 | 4:34.57 | 87280 | 107886
9 | 23:58.37 | 2:33.50 | 107887 | 119411
10 | 26:32.12 | 2:13.00 | 119412 | 129386
11 | 28:45.12 | 3:02.45 | 129387 | 143081
12 | 31:47.57 | 3:26.48 | 143082 | 158579
13 | 35:14.30 | 2:46.27 | 158580 | 171056
14 | 38:00.57 | 3:05.63 | 171057 | 184994
15 | 41:06.45 | 2:04.65 | 184995 | 194359 Range status and errors

Selected range

Filename C:UsersProgDogMusicZALIVKIBLUESSpann (Otis)Otis Spann's Chicago BluesOtis Spann - Otis Spann's Chicago Blues (with James Cotton, Johnny Young, Big Walter Horton, Johnny Shines).wav

Peak level 73.2 %
Extraction speed 5.6 X
Range quality 100.0 %
Test CRC E83A891C
Copy CRC E83A891C
Copy OK

No errors occurred


AccurateRip summary

Track 1 accurately ripped (confidence 6) [D2D51621] (AR v1)
Track 2 accurately ripped (confidence 6) [D91B64CE] (AR v1)
Track 3 accurately ripped (confidence 6) [C1A128DB] (AR v1)
Track 4 accurately ripped (confidence 6) [DC725627] (AR v1)
Track 5 accurately ripped (confidence 6) [F5DB18A4] (AR v1)
Track 6 accurately ripped (confidence 6) [9DDA96D5] (AR v1)
Track 7 accurately ripped (confidence 6) [FCED3AB7] (AR v1)
Track 8 accurately ripped (confidence 6) [ED5D22A9] (AR v1)
Track 9 accurately ripped (confidence 6) [30BE6106] (AR v1)
Track 10 accurately ripped (confidence 6) [31577EEC] (AR v1)
Track 11 accurately ripped (confidence 6) [804A0F1C] (AR v1)
Track 12 accurately ripped (confidence 6) [C67F88BE] (AR v1)
Track 13 accurately ripped (confidence 6) [849B6EC0] (AR v1)
Track 14 accurately ripped (confidence 6) [1810A537] (AR v1)
Track 15 accurately ripped (confidence 6) [3BC8C505] (AR v1)

All tracks accurately ripped

End of status report

---- CUETools DB Plugin V2.1.3

[CTDB TOCID: v5Yak6sWSUEnniihN_CgJA3jCN0-] found, Submit result: v5Yak6sWSUEnniihN_CgJA3jCN0- has been confirmed
[14f46f9f] (1/1) Accurately ripped ==== Log checksum 651A21E55DDF7DFE2D6CD45688C3B6A868BB4C7F64F077ED9F38DE0CBA02AEC9 ====

DR Log
foobar2000 1.2.3 / Dynamic Range Meter 1.1.1
log date: 2013-05-21 11:50:38

--------------------------------------------------------------------------------
Analyzed: Otis Spann / Otis Spann's Chicago Blues (with James Cotton, Johnny Young, Big Walter Horto...
--------------------------------------------------------------------------------

DR Peak RMS Duration Track
--------------------------------------------------------------------------------
DR10 -4.61 dB -16.54 dB 2:34 01-Get Your Hands Out Of My Pocket
DR12 -5.05 dB -20.49 dB 3:24 02-Nobody Knows My Troubles
DR10 -4.92 dB -16.62 dB 3:26 03-Sarah Street
DR10 -3.65 dB -17.00 dB 2:04 04-Worried Life Blues
DR11 -3.28 dB -16.74 dB 2:36 05-You Can't Hide
DR9 -6.15 dB -18.65 dB 2:54 06-Jack-Knife (Instrumental)
DR10 -5.25 dB -18.54 dB 2:27 07-What's On Your Worried Mind?
DR12 -2.99 dB -19.15 dB 4:35 08-Vicksburg Blues
DR12 -3.40 dB -17.87 dB 2:34 09-Who's Out There?
DR9 -4.04 dB -14.70 dB 2:13 10-Spann's Boogie Woogie (Instrumental)
DR10 -4.52 dB -17.25 dB 3:03 11-See See Rider
DR10 -5.81 dB -17.89 dB 3:27 12-Lovin' You
DR10 -2.70 dB -14.42 dB 2:46 13-One-Room Country Shack
DR10 -2.80 dB -15.60 dB 3:06 14-Mr. Jelly Roll Baker
DR12 -2.95 dB -17.58 dB 2:05 15-G.B. Blues (Instrumental)
--------------------------------------------------------------------------------

Number of tracks: 15
Official DR value: DR10

Samplerate: 44100 Hz
Channels: 2
Bits per sample: 16
Bitrate: 411 kbps
Codec: WavPack
================================================================================


All thanks go to Ready.zp and AD's

Visit my blog!

Download:

Uploaded: FLAC | mp3

DFiles: FLAC | mp3

pass: www.AvaxHome.ru


Otis Spann | The Deepest Soul Of Otis Redding | Otis Redding And Jimi Hendrix | Otis Redding Sings Soul Ballads | Otis Redding Otis Blue | Otis Lee Crenshaw | Very Best Of Otis Redding | Otis Redding The Dock Of The Bay | Otis Redding Best Of | Otis Redding 1992
Otis Spann - Otis Spanns Chicago Blues (1966) 1994 Testament TCD 5005 Torrent Download with keygen, crack, serial, dvdrip, hdrip, HD, 720p, 1024p, 2016, 2015