The Strain | Spiritpact | Invitation Only

Chet Atkins & Jerry Reed - Sneakin Around (1992)

New Download Links
Speed
 kbps
 kbps
 kbps

Chet Atkins & Jerry Reed - Sneakin' Around (1992)
EAC | FLAC | Image (Cue&Log) ~ 257 Mb (incl 5%) | Mp3 (CBR320) ~ 129 Mb (incl 5%) | Scans included
Genre: Country Pop, Instrumental Country, Finger-Picked Guitar | Label: Columbia | # 471480 2 | Time: 00:46:33

Sneakin' Around is a collaborative album by guitarists Chet Atkins and Jerry Reed. Reed and Atkins had done a series of recording collaborations nearly 20 years before this release. It peaked at No. 68 on the Billboard Country Albums charts. At the Grammy Awards of 1993, Sneakin' Around won the Grammy Award for Best Country Instrumental Performance.


Almost two decades after their series of collaborations had apparently run its course, Chet Atkins and Jerry Reed returned for an encore -- a most welcome one. This reunion starts out on Atkins' new contemporary jazz-flavored turf, with comfortable associates like bassist David Hungate, keyboardist Darryl Dybka, rhythm guitarist Paul Yandell, and familiar guests like fiddler Mark O'Connor and guitarist Mark Knopfler filling in the band. But before long, the old Atkins/Reed country ways filter in, the rapport and good humor between the two intact and bubbling on "Here We Are," trading and stealing licks from each other with acute, long-simmering telepathy. There are a few attractive Reed originals to be savored, including a remake of the picking special "The Claw" and a dignified duet on a tune entitled "Major Attempt at a Minor Thing." Knopfler again plays a key guest role on an Atkins album, giving "Cajun Stripper" much of its chugging drive and lending a hand to the most memorable tune on the CD, "Gibson Girl," a double-entendre ode to a favorite guitar. A few star singers like Suzy Bogguss and Amy Grant turn up in the chorus on "Nifty Fifties" -- and the sauntering title track truly sneaks up on you.

Review by Richard S. Ginell, Allmusic.com


Biography
Website
Wiki


Tracklist:

01. Summertime (05:07)
02. Cajun Stripper (04:20)
03. Vaudville Daze (03:39)
04. Here We Are (04:36)
05. The Claw (02:42)
06. First Born (03:27)
07. Major Attempt At A Minor Thing (03:56)
08. Gibson Girl (04:23)
09. Sneakin' Around (04:27)
10. Nifty Fifties (04:24)
11. Here Comes That Girl (05:28)


EAC log
Exact Audio Copy V1.0 beta 4 from 7. December 2014

EAC extraction logfile from 2. February 2015, 20:03

Chet Atkins & Jerry Reed / Sneakin' Around

Used drive : ASUS SDRW-08D1S-U Adapter: 1 ID: 1

Read mode : Secure
Utilize accurate stream : Yes
Defeat audio cache : Yes
Make use of C2 pointers : No

Read offset correction : 667
Overread into Lead-In and Lead-Out : No
Fill up missing offset samples with silence : Yes
Delete leading and trailing silent blocks : No
Null samples used in CRC calculations : Yes
Used interface : Native Win32 interface for Win NT & 2000

Used output format : User Defined Encoder
Selected bitrate : 128 kBit/s
Quality : High
Add ID3 tag : No
Command line compressor : C:Program Files (x86)Exact Audio CopyFlacflac.exe
Additional command line options : -V -8 -T "Date=%year%" -T "Genre=%genre%" %source% TOC of the extracted CD

Track | Start | Length | Start sector | End sector
---------------------------------------------------------
1 | 0:00.00 | 5:07.40 | 0 | 23064
2 | 5:07.40 | 4:20.55 | 23065 | 42619
3 | 9:28.20 | 3:39.25 | 42620 | 59069
4 | 13:07.45 | 4:36.32 | 59070 | 79801
5 | 17:44.02 | 2:42.50 | 79802 | 92001
6 | 20:26.52 | 3:27.18 | 92002 | 107544
7 | 23:53.70 | 3:56.27 | 107545 | 125271
8 | 27:50.22 | 4:23.08 | 125272 | 145004
9 | 32:13.30 | 4:27.05 | 145005 | 165034
10 | 36:40.35 | 4:24.35 | 165035 | 184869
11 | 41:04.70 | 5:28.40 | 184870 | 209509 Range status and errors

Selected range

Filename C:UsersОлегDesktopChet Atkins&Jerry ReedChet Atkins & Jerry Reed - Sneakin' Around.wav

Peak level 100.0 %
Extraction speed 1.9 X
Range quality 99.9 %
Test CRC A699413B
Copy CRC A699413B
Copy OK

No errors occurred


AccurateRip summary

Track 1 accurately ripped (confidence 6) [51C1FDFE] (AR v2)
Track 2 accurately ripped (confidence 6) [78395DAA] (AR v2)
Track 3 accurately ripped (confidence 6) [EC676202] (AR v2)
Track 4 accurately ripped (confidence 6) [6072A284] (AR v2)
Track 5 accurately ripped (confidence 6) [14012402] (AR v2)
Track 6 accurately ripped (confidence 6) [CE3A9597] (AR v2)
Track 7 accurately ripped (confidence 6) [8738854E] (AR v2)
Track 8 accurately ripped (confidence 6) [DA6CE3EE] (AR v2)
Track 9 accurately ripped (confidence 6) [2F70C3B3] (AR v2)
Track 10 accurately ripped (confidence 6) [B664E458] (AR v2)
Track 11 accurately ripped (confidence 5) [188AB9BE] (AR v2)

All tracks accurately ripped

End of status report

---- CUETools DB Plugin V2.1.4

[CTDB TOCID: HQ_q23S4ZuXocDwQqQJyjjgE8nQ-] found
Submit result: HQ_q23S4ZuXocDwQqQJyjjgE8nQ- has been confirmed
Track | CTDB Status
1 | (6/6) Accurately ripped
2 | (6/6) Accurately ripped
3 | (6/6) Accurately ripped
4 | (6/6) Accurately ripped
5 | (6/6) Accurately ripped
6 | (6/6) Accurately ripped
7 | (6/6) Accurately ripped
8 | (6/6) Accurately ripped
9 | (6/6) Accurately ripped
10 | (5/6) Accurately ripped
11 | (6/6) Accurately ripped ==== Log checksum 5C6257956850205848003FE1900418F6094C092D82ED83CB1315CED962C07686 ====

DR log
foobar2000 1.2 / Dynamic Range Meter 1.1.1
log date: 2015-02-04 23:56:10

--------------------------------------------------------------------------------
Analyzed: Chet Atkins & Jerry Reed / Sneakin' Around
--------------------------------------------------------------------------------

DR Peak RMS Duration Track
--------------------------------------------------------------------------------
DR16 -0.02 dB -18.42 dB 5:08 01-Summertime
DR17 0.00 dB -19.26 dB 4:21 02-Cajun Stripper
DR15 -1.45 dB -18.94 dB 3:39 03-Vaudville Daze
DR14 -3.69 dB -19.53 dB 4:36 04-Here We Are
DR15 -0.54 dB -19.93 dB 2:43 05-The Claw
DR13 -5.84 dB -23.20 dB 3:27 06-First Born
DR15 -0.08 dB -18.72 dB 3:56 07-Major Attempt At A Minor Thing
DR16 -0.38 dB -19.58 dB 4:23 08-Gibson Girl
DR14 -1.38 dB -20.10 dB 4:27 09-Sneakin' Around
DR14 -0.40 dB -17.32 dB 4:24 10-Nifty Fifties
DR15 -0.39 dB -18.35 dB 5:29 11-Here Comes That Girl
--------------------------------------------------------------------------------

Number of tracks: 11
Official DR value: DR15

Samplerate: 44100 Hz
Channels: 2
Bits per sample: 16
Bitrate: 687 kbps
Codec: FLAC
================================================================================



All thanks to original releaser - Alex Fal






The Film Music Of Jerry Goldsmith Jerry Goldsmith London | Chet Atkins | The Best Of Chet Baker | Jerry Reed The Essential Jerry Reed | Chet Atkins Chet Picks On The Grammys | Les Paul Chet Atkins | Chet Atkins Almost Alone | Dr Atkins Diet Revolution | Chet Baker 1992 | New Atkins New You
Chet Atkins & Jerry Reed - Sneakin Around (1992) Torrent Download with keygen, crack, serial, dvdrip, hdrip, HD, 720p, 1024p, 2016, 2015