New Latest Songs | Respecter la lgislation en vigueur. | Staffel 12

Eloise Laws - Love Factory: The Invictus Sessions (1999)

New Download Links
Speed
 kbps
 kbps
 kbps

Eloise Laws - Love Factory: The Invictus Sessions (1999)
R&B, Northern Soul, Disco | EAC Rip | FLAC, Img+CUE + LOG + Full Scans-300dpi (JPEG) | 64:08 Min | 442,69 Mb
Label: Sequel Records (UK) | Released: 1999, July, 19

The first-ever compilation of the legendary Invictus work by this great 70s soul diva! Eloise was the lesser-known sister of Ronnie, Hubert, and Debra Laws 鈥?and during the mid 70s she recorded her best work at the Invictus label with the Holland-Dozier-Holland team. This CD features 15 great tracks from those years, including her whole Ain't It Good Feeling Good LP, plus bonus tracks. The CD features the northern soul killer "Love Factory", plus nice ones like "Love Goes Deeper Than That" (12 inch mix), "Ain't It Good Feeling Good", "Where Did We Go Wrong", "Touch Me", "Stay With Me", and "Put A Little Love Into It" (12 inch mix).






Release of this CD: 1999, July, 19 [CD Sequel Records (UK), Cat.# NEMCD 434 / EAN: 5023224043429]
This Compilation 鈩?& 漏 1999 Sequel Records
Sequel Records is a division of Castle Music Ltd.

Tracklist:

01. Love Factory (03:25)
(Lamont Dozier / Brian Holland / Eddie Holland)
02. Stay With Me (03:06)
(Lamont Dozier / Brian Holland / Eddie Holland)
03. You Made Me an Offer I Can't Refuse (03:11)
(Lamont Dozier / Brian Holland / Eddie Holland / R. Miner)
04. Tighten Him Up (03:00)
(Lamont Dozier / Brian Holland / Eddie Holland)
05. Touch Me (03:41)
(Brian Holland / Eddie Holland)
06. You Got Me Loving You Again (04:14)
(Brian Holland / Eddie Holland / M. Miller)
07. Love Goes Deeper Than That (04:09)
(Brian Holland / Eddie Holland)
08. Ain't It Good Feeling Good (03:53)
(Brian Holland / Eddie Holland / M. Miller)
09. Make It Last Forever (04:09)
(Brian Holland / Eddie Holland / M. Miller)
10. Where Did We Go Wrong (05:08)
(Brian Holland / Eddie Holland)
11. I Believe in You Baby (03:36)
(A.J. Bond / Brian Holland / Eddie Holland)
12. Put A Little Love Into It (05:11)
(Brian Holland / Eddie Holland)
13. Camouflage (04:53)
(Brian Holland / M. Miller)
14. Love Goes Deeper Than That (12" Version) (05:43)
(Cole Porter)
15. Put A Little Love Into It (12" Version) (06:49)
(Brian Holland / Eddie Holland)

Notes:

All the recordings made by Eloise Laws for Holland-Dozier-Holland labels 'Music Merchant' and 'Invictus' between 1972-1977:

tracks 3 & 4 appeared on Music Merchant MS1011 7" single (October 1972)
tracks 1 & 2 appeared on Music Merchant MS1013 7" single (February 1973)
tracks 5 & 2 appeared on Invictus ZS71277 7" single (1974)
tracks 6-13 appeared on Invictus LP ZS34379 (1977)
tracks 14 & 15 appeared on Invictus ZS71280 12" single (1976)

Tracks 2, 3, 4 and 10 are in mono
EAC log
Exact Audio Copy V1.0 beta 3 from 29. August 2011

EAC extraction logfile from 31. May 2015, 19:26

Eloise Laws / Love Factory - The Invictus Sessions

Used drive : PIONEER BD-RW BDR-208D Adapter: 5 ID: 0

Read mode : Secure
Utilize accurate stream : Yes
Defeat audio cache : Yes
Make use of C2 pointers : No

Read offset correction : 667
Overread into Lead-In and Lead-Out : No
Fill up missing offset samples with silence : Yes
Delete leading and trailing silent blocks : No
Null samples used in CRC calculations : Yes
Used interface : Native Win32 interface for Win NT & 2000

Used output format : Internal WAV Routines
Sample format : 44.100 Hz; 16 Bit; Stereo TOC of the extracted CD

Track | Start | Length | Start sector | End sector
---------------------------------------------------------
1 | 0:00.00 | 3:25.02 | 0 | 15376
2 | 3:25.02 | 3:06.00 | 15377 | 29326
3 | 6:31.02 | 3:11.05 | 29327 | 43656
4 | 9:42.07 | 2:59.45 | 43657 | 57126
5 | 12:41.52 | 3:41.23 | 57127 | 73724
6 | 16:23.00 | 4:14.22 | 73725 | 92796
7 | 20:37.22 | 4:09.30 | 92797 | 111501
8 | 24:46.52 | 3:52.45 | 111502 | 128946
9 | 28:39.22 | 4:08.73 | 128947 | 147619
10 | 32:48.20 | 5:08.25 | 147620 | 170744
11 | 37:56.45 | 3:36.00 | 170745 | 186944
12 | 41:32.45 | 5:11.20 | 186945 | 210289
13 | 46:43.65 | 4:53.05 | 210290 | 232269
14 | 51:36.70 | 5:42.45 | 232270 | 257964
15 | 57:19.40 | 6:48.45 | 257965 | 288609 Range status and errors

Selected range

Filename D:BlondStyleEloise Laws - Love Factory - The Invictus Sessions.wav

Peak level 95.3 %
Extraction speed 4.4 X
Range quality 100.0 %
Test CRC 22C7FCD3
Copy CRC 22C7FCD3
Copy OK

No errors occurred


AccurateRip summary

Track 1 accurately ripped (confidence 2) [41FB0D02] (AR v2)
Track 2 accurately ripped (confidence 2) [7FADD7A0] (AR v2)
Track 3 accurately ripped (confidence 2) [29AAA8E9] (AR v2)
Track 4 accurately ripped (confidence 2) [AB2C0DD5] (AR v2)
Track 5 accurately ripped (confidence 2) [14A88345] (AR v2)
Track 6 accurately ripped (confidence 2) [0E9AB4FD] (AR v2)
Track 7 accurately ripped (confidence 2) [CB67808F] (AR v2)
Track 8 accurately ripped (confidence 2) [B9303863] (AR v2)
Track 9 accurately ripped (confidence 2) [CC33E38E] (AR v2)
Track 10 accurately ripped (confidence 2) [643631CB] (AR v2)
Track 11 accurately ripped (confidence 2) [8B1AB3A4] (AR v2)
Track 12 accurately ripped (confidence 2) [C0E8A5D9] (AR v2)
Track 13 accurately ripped (confidence 2) [696D7E19] (AR v2)
Track 14 accurately ripped (confidence 2) [DF122988] (AR v2)
Track 15 accurately ripped (confidence 2) [6117A6BC] (AR v2)

All tracks accurately ripped

End of status report

---- CUETools DB Plugin V2.1.3

[CTDB TOCID: oMUCxuM.bPU444ADhykYOfWjp6g-] found, Submit result: oMUCxuM.bPU444ADhykYOfWjp6g- has been confirmed
[b660471e] (1/1) Accurately ripped ==== Log checksum 72A92EB5447B2B47911C9C7D6A06A6145650B0831AE2F6B3499DD1CDE6775A46 ====

TT DR Offline Meter 1.4 log
-----------------------------------------------
Statistics for: Eloise Laws - Love Factory - The Invictus Sessions.wav
Number of Samples: 169702680
-----------------------------------------------

left right

Peak value: -0.42 dB --- -0.42 dB
Avg RMS: -13.25 dB --- -13.13 dB
DR channel: 10.99 dB --- 10.79 dB
-----------------------------------------------

Official DR value: DR11
===============================================

Nitroflare

password: BlondStyle

Uploadable


Eloise J Knapp | Eloise | Sacrificing Families Navigating Laws Labor And Love Across Borders | Elose Gang Bang Ultra Extrme | Eloise J Knapp | Switchblade Invictus Infinitum | The Laws Of Love New Sensations | Tears Of Fears The Seeds Of Love 1999 | Death In Love 1999 | In The Laws
Eloise Laws - Love Factory: The Invictus Sessions (1999) Torrent Download with keygen, crack, serial, dvdrip, hdrip, HD, 720p, 1024p, 2016, 2015