Escaping Polygamy S01E06 Little Sister 720p WEB h264-CRiMSON [eztv] | Escaping Polygamy S01E05 Priscilla WEB h264-CRiMSON [eztv] | Escaping Polygamy S01E07 Yolanda WEB h264-CRiMSON [eztv]

Kathy Mattea - Calling Me Home (2012)

New Download Links
Speed
 kbps
 kbps
 kbps

Kathy Mattea - Calling Me Home (2012)
Country | X Lossless Decoder | Flac (tracks) + Cue + Log | 1 CD | 288 MB | Full Scans
Label: Welk | Catalog Number: 14085 | Rls.date: Sep 11, 2012

When Kathy Mattea made a hard roots turn on 2008's Coal, a heartfelt examination in classic mining songs of the hard, often dangerous life of coal miners, it sounded like she'd been singing them all her life. On Calling Me Home, Mattea delivers a second album of material that has its origins in coal country and/or her native rural West Virginia. With co-producer Gary Paczosa, she chose songs that drew their inspiration from coal-mining communities, and the juxtaposition of the natural environment and its devastation at the hands of an industry that is often the only one that provides a livelihood. These songs were penned by classic topical writers and modern performers. The band is top-flight: Stuart Duncan, Byron House, Bryan Sutton, Tim Lauer, Bill Cooley, and Jim Brock. Guest vocalists include Patty Loveless, Tim & Mollie O'Brien, Alison Krauss, and Emmylou Harris, to mention a few. Paczosa is well-known in acoustic music circles, from bluegrass and newgrass to modern folk, for his manner of capturing warm, pristine, immediate sound. The arrangements by Paczosa and Mattea never lose sight of the traditional -- even if the song is present-day -- while honoring the progressive talents of all the players involved. Atop it all, of course, is Mattea's voice: full, rich, soulful, evocative of both history and mystery. Her husky, smooth delivery and unique phrasing get these songs across with conviction. Its in the haunted backwoods gospel of Si Kahn's "Gone, Gonna Rise Again," a song rich in sociological and environmental metaphors. Catch her reading of Laurie Lewis' "The Wood Thrush's Song," with Aoife O'Donovan's harmony vocal, as Mattea digs deep inside the lyric while mandolins, guitars, accordion, and bass give her a podium. She doesn't need to soar above them; she merely has to assert the authority of the lyric to invite the listener in. This is equally true in the reportorial classic "West Virginia Mine Disaster" by Hazel Dickens. Contrast this with the desolate a cappella lament of Alice Gerrard's "Now Is the Cool of the Day," the nostalgia of Dickens' "West Virginia, My Home," or the depth of historical loss in Jean Ritchie's "Black Waters." The "blues" in bluegrass is resonant in Mattea's declamatory reading of Larry Cordle's dark-tinged, historically ambivalent "Hello, My Name Is Coal." Calling Me Home is not only a worthy follow-up to Coal, but it presents even the most historic of these songs as timeless and ever present. It's more confident, powerful, and beautiful.

Tracklist:

01 - a far cry 04:06
02 - gone gonna rise again 03:22
03 - the wood thrushs song 03:48
04 - west virginia mine disaster 04:29
05 - the maples lament 03:52
06 - hello my name is coal 03:00
07 - calling me home 02:31
08 - black waters 04:57
09 - west virginia my home 04:28
10 - agate hill 03:48
11 - now is the cool of the day 03:25
12 - requiem for a mountain 02:37

XLD LOG
X Lossless Decoder version 20121027 (142.1)

XLD extraction logfile from 2012-11-27 17:54:47 -0500

Kathy Mattea / Calling Me Home

Used drive : MATSHITA DVD-R UJ-898 (revision HE13)

Ripper mode : XLD Secure Ripper
Disable audio cache : OK for the drive with a cache less than 1375KiB
Make use of C2 pointers : NO
Read offset correction : 102
Max retry count : 20
Gap status : Analyzed, Appended (except HTOA)

TOC of the extracted CD
Track | Start | Length | Start sector | End sector
---------------------------------------------------------
1 | 00:00:00 | 04:07:63 | 0 | 18587
2 | 04:07:63 | 03:23:01 | 18588 | 33813
3 | 07:30:64 | 03:49:36 | 33814 | 51024
4 | 11:20:25 | 04:31:03 | 51025 | 71352
5 | 15:51:28 | 03:53:72 | 71353 | 88899
6 | 19:45:25 | 03:01:39 | 88900 | 102513
7 | 22:46:64 | 02:31:52 | 102514 | 113890
8 | 25:18:41 | 04:58:50 | 113891 | 136290
9 | 30:17:16 | 04:28:49 | 136291 | 156439
10 | 34:45:65 | 03:48:52 | 156440 | 173591
11 | 38:34:42 | 03:27:45 | 173592 | 189161
12 | 42:02:12 | 02:37:13 | 189162 | 200949

AccurateRip Summary
Disc not found in AccurateRip DB.

All Tracks
Album gain : -7.71 dB
Peak : 0.999298
Statistics
Read error : 0
Jitter error (maybe fixed) : 0
Retry sector count : 0
Damaged sector count : 0

Track 01
Filename : /Users/erwinfigueroa/Transmission/Uploaded/Kathy Mattea - Calling Me Home (2012) [V0]/01 A Far Cry.mp3
/Users/erwinfigueroa/Transmission/Uploaded/Kathy Mattea - Calling Me Home (2012) [FLAC]/01 A Far Cry.flac
Pre-gap length : 00:02:00

Track gain : -8.38 dB
Peak : 0.999298
CRC32 hash (test run) : F63B6ED7
CRC32 hash : F63B6ED7
CRC32 hash (skip zero) : C9B76B52
AccurateRip v1 signature : 647B24C6
AccurateRip v2 signature : FED33A31
->Track not present in AccurateRip database.
Statistics
Read error : 0
Jitter error (maybe fixed) : 0
Retry sector count : 0
Damaged sector count : 0

Track 02
Filename : /Users/erwinfigueroa/Transmission/Uploaded/Kathy Mattea - Calling Me Home (2012) [V0]/02 Gone, Gonna Rise Again.mp3
/Users/erwinfigueroa/Transmission/Uploaded/Kathy Mattea - Calling Me Home (2012) [FLAC]/02 Gone, Gonna Rise Again.flac
Pre-gap length : 00:01:01

Track gain : -7.82 dB
Peak : 0.999237
CRC32 hash (test run) : 9D17F9FF
CRC32 hash : 9D17F9FF
CRC32 hash (skip zero) : DDA09B89
AccurateRip v1 signature : 6A96F812
AccurateRip v2 signature : C1B81EAE
->Track not present in AccurateRip database.
Statistics
Read error : 0
Jitter error (maybe fixed) : 0
Retry sector count : 0
Damaged sector count : 0

Track 03
Filename : /Users/erwinfigueroa/Transmission/Uploaded/Kathy Mattea - Calling Me Home (2012) [V0]/03 The Wood Thrush's Song.mp3
/Users/erwinfigueroa/Transmission/Uploaded/Kathy Mattea - Calling Me Home (2012) [FLAC]/03 The Wood Thrush's Song.flac
Pre-gap length : 00:02:62

Track gain : -7.05 dB
Peak : 0.999237
CRC32 hash (test run) : 490E2530
CRC32 hash : 490E2530
CRC32 hash (skip zero) : 2AB11F3B
AccurateRip v1 signature : F082A297
AccurateRip v2 signature : 8E2226AD
->Track not present in AccurateRip database.
Statistics
Read error : 0
Jitter error (maybe fixed) : 0
Retry sector count : 0
Damaged sector count : 0

Track 04
Filename : /Users/erwinfigueroa/Transmission/Uploaded/Kathy Mattea - Calling Me Home (2012) [V0]/04 West Virginia Mine Disaster.mp3
/Users/erwinfigueroa/Transmission/Uploaded/Kathy Mattea - Calling Me Home (2012) [FLAC]/04 West Virginia Mine Disaster.flac
Pre-gap length : 00:02:37

Track gain : -8.02 dB
Peak : 0.999237
CRC32 hash (test run) : 32381521
CRC32 hash : 32381521
CRC32 hash (skip zero) : 9650FE50
AccurateRip v1 signature : 435B0720
AccurateRip v2 signature : DC4BE405
->Track not present in AccurateRip database.
Statistics
Read error : 0
Jitter error (maybe fixed) : 0
Retry sector count : 0
Damaged sector count : 0

Track 05
Filename : /Users/erwinfigueroa/Transmission/Uploaded/Kathy Mattea - Calling Me Home (2012) [V0]/05 The Maple's Lament.mp3
/Users/erwinfigueroa/Transmission/Uploaded/Kathy Mattea - Calling Me Home (2012) [FLAC]/05 The Maple's Lament.flac
Pre-gap length : 00:01:58

Track gain : -7.09 dB
Peak : 0.999176
CRC32 hash (test run) : A9718545
CRC32 hash : A9718545
CRC32 hash (skip zero) : FD153A73
AccurateRip v1 signature : A1AC7065
AccurateRip v2 signature : 005AA1B3
->Track not present in AccurateRip database.
Statistics
Read error : 0
Jitter error (maybe fixed) : 0
Retry sector count : 0
Damaged sector count : 0

Track 06
Filename : /Users/erwinfigueroa/Transmission/Uploaded/Kathy Mattea - Calling Me Home (2012) [V0]/06 Hello, My Name Is Coal.mp3
/Users/erwinfigueroa/Transmission/Uploaded/Kathy Mattea - Calling Me Home (2012) [FLAC]/06 Hello, My Name Is Coal.flac
Pre-gap length : 00:01:58

Track gain : -8.77 dB
Peak : 0.999268
CRC32 hash (test run) : BCE9E161
CRC32 hash : BCE9E161
CRC32 hash (skip zero) : A9FF9E28
AccurateRip v1 signature : A2B4C235
AccurateRip v2 signature : 35DD2891
->Track not present in AccurateRip database.
Statistics
Read error : 0
Jitter error (maybe fixed) : 0
Retry sector count : 0
Damaged sector count : 0

Track 07
Filename : /Users/erwinfigueroa/Transmission/Uploaded/Kathy Mattea - Calling Me Home (2012) [V0]/07 Calling Me Home.mp3
/Users/erwinfigueroa/Transmission/Uploaded/Kathy Mattea - Calling Me Home (2012) [FLAC]/07 Calling Me Home.flac
Pre-gap length : 00:01:53

Track gain : -8.06 dB
Peak : 0.999207
CRC32 hash (test run) : 956FC6CD
CRC32 hash : 956FC6CD
CRC32 hash (skip zero) : 80B22C77
AccurateRip v1 signature : 7D5B557E
AccurateRip v2 signature : 3E3A4ECD
->Track not present in AccurateRip database.
Statistics
Read error : 0
Jitter error (maybe fixed) : 0
Retry sector count : 0
Damaged sector count : 0

Track 08
Filename : /Users/erwinfigueroa/Transmission/Uploaded/Kathy Mattea - Calling Me Home (2012) [V0]/08 Black Waters.mp3
/Users/erwinfigueroa/Transmission/Uploaded/Kathy Mattea - Calling Me Home (2012) [FLAC]/08 Black Waters.flac
Pre-gap length : 00:02:14

Track gain : -7.42 dB
Peak : 0.999207
CRC32 hash (test run) : 1A3D3679
CRC32 hash : 1A3D3679
CRC32 hash (skip zero) : 8B703797
AccurateRip v1 signature : AEB82A81
AccurateRip v2 signature : EE82CDD4
->Track not present in AccurateRip database.
Statistics
Read error : 0
Jitter error (maybe fixed) : 0
Retry sector count : 0
Damaged sector count : 0

Track 09
Filename : /Users/erwinfigueroa/Transmission/Uploaded/Kathy Mattea - Calling Me Home (2012) [V0]/09 West Virginia, My Home.mp3
/Users/erwinfigueroa/Transmission/Uploaded/Kathy Mattea - Calling Me Home (2012) [FLAC]/09 West Virginia, My Home.flac
Pre-gap length : 00:02:28

Track gain : -7.79 dB
Peak : 0.999237
CRC32 hash (test run) : 349516B6
CRC32 hash : 349516B6
CRC32 hash (skip zero) : 84FF5F5F
AccurateRip v1 signature : 4E5B9670
AccurateRip v2 signature : 6C2AE762
->Track not present in AccurateRip database.
Statistics
Read error : 0
Jitter error (maybe fixed) : 0
Retry sector count : 0
Damaged sector count : 0

Track 10
Filename : /Users/erwinfigueroa/Transmission/Uploaded/Kathy Mattea - Calling Me Home (2012) [V0]/10 Agate Hill.mp3
/Users/erwinfigueroa/Transmission/Uploaded/Kathy Mattea - Calling Me Home (2012) [FLAC]/10 Agate Hill.flac
Pre-gap length : 00:02:21

Track gain : -6.56 dB
Peak : 0.999146
CRC32 hash (test run) : ECD2EE60
CRC32 hash : ECD2EE60
CRC32 hash (skip zero) : 091483A5
AccurateRip v1 signature : 003365EC
AccurateRip v2 signature : 412F912D
->Track not present in AccurateRip database.
Statistics
Read error : 0
Jitter error (maybe fixed) : 0
Retry sector count : 0
Damaged sector count : 0

Track 11
Filename : /Users/erwinfigueroa/Transmission/Uploaded/Kathy Mattea - Calling Me Home (2012) [V0]/11 Now Is The Cool Of The Day.mp3
/Users/erwinfigueroa/Transmission/Uploaded/Kathy Mattea - Calling Me Home (2012) [FLAC]/11 Now Is The Cool Of The Day.flac
Pre-gap length : 00:02:06

Track gain : -6.50 dB
Peak : 0.985413
CRC32 hash (test run) : E782E4FF
CRC32 hash : E782E4FF
CRC32 hash (skip zero) : 4A88F369
AccurateRip v1 signature : 2A4E6FC7
AccurateRip v2 signature : 6C24ED9D
->Track not present in AccurateRip database.
Statistics
Read error : 0
Jitter error (maybe fixed) : 0
Retry sector count : 0
Damaged sector count : 0

Track 12
Filename : /Users/erwinfigueroa/Transmission/Uploaded/Kathy Mattea - Calling Me Home (2012) [V0]/12 Requiem For A Mountain.mp3
/Users/erwinfigueroa/Transmission/Uploaded/Kathy Mattea - Calling Me Home (2012) [FLAC]/12 Requiem For A Mountain.flac
Pre-gap length : 00:02:52

Track gain : -4.46 dB
Peak : 0.999176
CRC32 hash (test run) : 332ED6D0
CRC32 hash : 332ED6D0
CRC32 hash (skip zero) : 5637AFD2
AccurateRip v1 signature : E20B22FD
AccurateRip v2 signature : 12C32355
->Track not present in AccurateRip database.
Statistics
Read error : 0
Jitter error (maybe fixed) : 0
Retry sector count : 0
Damaged sector count : 0

No errors occurred

End of status report
Thanks to the original ripper





Kathy Reichs | Kathy Lien | Kathy Lette Is Safe 1 | Kathy Griffin Is Safe 1 | Kathy Griffin Balls Of Steel | Kathy Mattea Kathy Mattea | One Direction Take Me Home 2012 | Home And Business 2012 | Kathy Griffin S05 | Alice Nice And Kathy White
Kathy Mattea - Calling Me Home (2012) Torrent Download with keygen, crack, serial, dvdrip, hdrip, HD, 720p, 1024p, 2016, 2015