Vidzi.tv | 30 Days of Night: Dark Days (2010) | Maisy Stella

De Phazz - Rare Tracks & Remixes (2002)

New Download Links
Speed
 kbps
 kbps
 kbps
1

De Phazz - Rare Tracks & Remixes (2002)
EAC | APE, Img+Cue, Log+Checker | ~ 443 Mb | Covers | MP3 CBR320 | ~ 167 Mb | 3% Recovery
Genre: Electronica, Acid Jazz, Future Jazz, Funk, Downtempo, Lounge, Trip-Hop

Track List:

01. The Mambo Craze (extended version) [04:34]
02. omething Special (Phazz-a-delic Mix) [04:00]
03. Nameless Life (RaPoetry) [05:17]
04. Good Boy (feat B. Lahr) (Live version) [05:01]
05. Riddim Wize [04:56]
06. Hero Dead and Gone (Dicotheque Mix) [04:54]
07. Drop Down Low [03:47]
08. Love Set U Going (Vs. Lahr) (Exclusive Breaking The Ice mix) [05:11]
09. Pressurized [05:26]
10. No Jive (Ripped Version) [04:24]
11. Downtown Tazacorte [02:29]
12. Something Special (Duet with Karl Frierson) [03:58]
13. Plastic Love Memory (no. Nine) [04:44]
14. Good Boy (feat B. Lahr) (ManMachineMan Remix) [07:21]
15. Jazz Music (strings) [03:35]

Log EAC
Exact Audio Copy V0.99 prebeta 4 from 23. January 2008

Отчёт EAC об извлечении, выполненном 26. февраля 2009, 11:17

De-Phazz / Rare Tracks & Remixes

Дисковод: _NEC DVD_RW ND-3520A Adapter: 2 ID: 0

Режим чтения : Достоверность
Использование точного потока : Да
Отключение кэша аудио : Да
Использование указателей C2 : Нет

Коррекция смещения при чтении : 48
Способность читать области Lead-in и Lead-out : Нет
Заполнение пропущенных сэмплов тишиной : Да
Удаление блоков с тишиной в начале и конце : Нет
При вычислениях CRC использовались нулевые сэмплы : Да
Интерфейс : Установленный внешний ASPI-интерфейс

Выходной формат : Внутренние WAV-операции
Формат сэмплов : 44.100 Гц; 16 бит; стерео TOC извлечённого CD

Трек | Старт | Длительность | Начальный сектор | Конечный сектор
---------------------------------------------------------------------
1 | 0:00.00 | 4:34.02 | 0 | 20551
2 | 4:34.02 | 4:00.35 | 20552 | 38586
3 | 8:34.37 | 5:16.55 | 38587 | 62341
4 | 13:51.17 | 5:01.53 | 62342 | 84969
5 | 18:52.70 | 4:55.17 | 84970 | 107111
6 | 23:48.12 | 4:54.03 | 107112 | 129164
7 | 28:42.15 | 3:47.45 | 129165 | 146234
8 | 32:29.60 | 5:10.47 | 146235 | 169531
9 | 37:40.32 | 5:25.70 | 169532 | 193976
10 | 43:06.27 | 4:24.28 | 193977 | 213804
11 | 47:30.55 | 2:28.42 | 213805 | 224946
12 | 49:59.22 | 3:58.10 | 224947 | 242806
13 | 53:57.32 | 4:44.35 | 242807 | 264141
14 | 58:41.67 | 7:20.25 | 264142 | 297166
15 | 66:02.17 | 3:35.20 | 297167 | 313311 Характеристики диапазона извлечения и сообщения об ошибках

Выбранный диапазон

Имя файла G:SamsungMusicTorrentDe-Phazz - Rare Tracks & RemixesDe-Phazz - Rare Tracks & Remixes.wav

Пиковый уровень 100.0 %
Качество диапазона 99.9 %
CRC теста C8418466
CRC копии C8418466
Копирование... OK

Ошибок не произошло

Конец отчёта

AUDIOCHECKER Log
AUDIOCHECKER v2.0 beta (build 457) - by Dester - [email protected]
~~~~~~~~~~~~~~~~~~~~~~~~~~~~~~~~~~
-=== НЕ РЕДАКТИРУЙТЕ ЭТОТ ФАЙЛ! ===-

Путь: ...De-Phazz - 2002 - Rare Tracks & Remixes [Ape]

01 -=- De-Phazz - Rare Tracks & Remixes.ape -=- CDDA (100%)

223724948

2

LOSSLESS

RS:
part 1 | part 2 | part 3 | part 4 | part 5

HF:
part 1 | part 2 | part 3 | part 4 | part 5

Tur-bit:
part 1 | part 2 | part 3 | part 4 | part 5 mp3

RS: part 1 | RS: part 2 | | HF: part 1 | HF: part 2 | | Tur-bit: part 1 | Tur-bit: part 2

pass: shsv

In case you encounter dead links, please send me a private message

Visit my blog!


See also:

De Phazz - Greatest Hits (2CD) - 2008
De Phazz - Onstage / Backstage: A Retrospective (2005)
De Phazz - Live in Kiev (2005)


The Rare Earth | U2 Unreleased And Rare | Rare 60S Bands | A Rare Christmas | Daily Lama Phazz | A Rare Tale | Rare Hits Of The 80S Vol 15 | Rare R B | The Rare Find | Faith No More Rare
De Phazz - Rare Tracks & Remixes (2002) Torrent Download with keygen, crack, serial, dvdrip, hdrip, HD, 720p, 1024p, 2016, 2015