Ramsey Anderson | Фильмы + Афганистан | Geobreeders Episode 1 English Dubbed

Camille Saint-Saëns - Messe de Requiem; Partsongs (Diego Fasolis) (2004)

New Download Links
Speed
 kbps
 kbps
 kbps

Camille Saint-Saëns - Messe de Requiem; Partsongs (Diego Fasolis) (2004)
Classical | Eac, Flac, Img+Cue, Log | Covers | 304.66 MB
Label: Chandos Records | Catalog N.: CHAN 10214 | TT - 73:21

The acclaimed combination of Diego Fasolis and Swiss Radio present Camille Saint-Saëns’s Partsongs and Requiem Mass.
This is the only available recording of the Requiem Mass.
Saint-Saëns’s Requiem is a highly appealing work with beautiful and complex harmonies. There is plenty of colour, too – as one would expect from this inexhaustibly inventive opera composer – but also sincerity and gravitas.
Previous releases from this team have been warmly received by critics and public alike.
For many years Saint-Saëns earned a living as organist of the Church of the Madeleine in Paris. He was not a religious man, and indeed spoke of his ‘repugnance for religious ceremonial’. In the spring of 1877 he finally felt able to escape the appointment and support himself independently. At the same time, the lease on his flat expired and he was helped to find a new apartment by a wealthy friend and admirer, Albert Libon.
At the end of May, Saint-Saëns returned from a concert tour to find that Libon had died and left him 100,000 francs. The will, dated several years before, stated that the bequest was intended to free Saint-Saëns from his appointment at Madeleine. Libon had also included the condition that Saint-Saëns should compose a Requiem to be performed on the anniversary of his death. Although Libon had later deleted this condition, Saint-Saëns felt such a keen debt of gratitude that he nevertheless composed such a piece. He conducted the first performance of his Requiem on the morning of 22 May, just two days after the anniversary of Libon’s death, with Charles Widor as the organist and vocal soloists from the Paris opera.
One cannot help but wonder if Saint-Saëns came to regret his Requiem. He must surely have thought of Mozart (whose Requiem had presaged his own death) when, six days later, his two-year old son fell to his death out of the window of their new apartment. His other son, a baby of only six months, died just a few weeks later through illness. Saint-Saëns’s marriage did not survive the devastation. He parted from his wife who retreated to the country and only returned decades later, shrouded in black, at Saint-Saëns’s own grandiose funeral – once again back at the Madeleine.

Cast:
Marie-Paule Dotti, soprano
Guillemette Laurens, mezzo-soprano
Luca Lombardo, tenor
Nicolas Testé, bass
Coro della Radio Svizzera, Lugano
Orchestra della Svizzera Italiana
Diego Fasolis, conductor

Tracklisting:
01-08. Messe de Requiem, Op. 54
09. Romance du soir, Op. 118
10. Les Fleurs et les arbres, Op. 68 No. 2
11. Des pas dans l’allée, Op. 141 No. 1
12. Calme des nuits, Op. 68 No. 1
13. Salut au Chevalier Printemps, Op. 151 No. 2
14. Les Guerriers, Op. 84
15. Pastorale
16. Les Marins de Kermor, Op. 71 No. 1
17. Aux conquérants de l’air, Op. 164
18. Chanson de grand-père, Op. 53 No. 1


LOG CD:
Exact Audio Copy V1.0 beta 3 from 29. August 2011

EAC extraction logfile from 8. February 2012, 18:38

Coro Della Radio Svizzerra, Orchestra della Svizzera Italiana, Diego Fasolis / Saint-Saens - Messe de Requiem & Part Songs

Used drive : Optiarc DVD+-RW AD-5170S Adapter: 1 ID: 2

Read mode : Secure
Utilize accurate stream : Yes
Defeat audio cache : Yes
Make use of C2 pointers : No

Read offset correction : 48
Overread into Lead-In and Lead-Out : No
Fill up missing offset samples with silence : Yes
Delete leading and trailing silent blocks : No
Null samples used in CRC calculations : Yes
Used interface : Native Win32 interface for Win NT & 2000

Used output format : User Defined Encoder
Selected bitrate : 896 kBit/s
Quality : High
Add ID3 tag : Yes
Command line compressor : C:Program FilesExact Audio CopyFlacflac.exe
Additional command line options : -V -8 %source% TOC of the extracted CD

Track | Start | Length | Start sector | End sector
---------------------------------------------------------
1 | 0:00.00 | 5:38.00 | 0 | 25349
2 | 5:38.00 | 6:58.59 | 25350 | 56758
3 | 12:36.59 | 4:45.35 | 56759 | 78168
4 | 17:22.19 | 4:23.42 | 78169 | 97935
5 | 21:45.61 | 2:39.00 | 97936 | 109860
6 | 24:24.61 | 1:32.02 | 109861 | 116762
7 | 25:56.63 | 1:51.74 | 116763 | 125161
8 | 27:48.62 | 7:42.09 | 125162 | 159820
9 | 35:30.71 | 2:58.01 | 159821 | 173171
10 | 38:28.72 | 1:51.00 | 173172 | 181496
11 | 40:19.72 | 4:48.11 | 181497 | 203107
12 | 45:08.08 | 4:25.43 | 203108 | 223025
13 | 49:33.51 | 4:02.26 | 223026 | 241201
14 | 53:36.02 | 4:38.20 | 241202 | 262071
15 | 58:14.22 | 2:47.60 | 262072 | 274656
16 | 61:02.07 | 7:25.50 | 274657 | 308081
17 | 68:27.57 | 3:04.32 | 308082 | 321913
18 | 71:32.14 | 1:46.61 | 321914 | 329924 Range status and errors

Selected range

Filename D:temppicsSaint-Saens - Messe de Requiem & Part SongsSaint-Saens - Messe de Requiem & Part Songs.wav

Peak level 99.8 %
Extraction speed 4.4 X
Range quality 99.9 %
Test CRC B78F78CD
Copy CRC B78F78CD
Copy OK

No errors occurred

End of status report

==== Log checksum 05E9B94E821BDE60BA4F275596E37A956F2B3BE7C0A546D52D47B5384D4B8135 ====

“Thanks to the original releaser"



Saint Saens Symphonie 3 | Messe Noire | Vai Diego | Teen Bitch Camille | Lost San Diego | Go Diego Divx | Camille Claude 1915 | Go Diego Go Mystery | Camille Claudel 1915 | Go Diego Go
Camille Saint-Saëns - Messe de Requiem; Partsongs (Diego Fasolis) (2004) Torrent Download with keygen, crack, serial, dvdrip, hdrip, HD, 720p, 1024p, 2016, 2015