Family Guy | Meri Awaaz Hi Pehchaan Hai | House of Cards

Lyle Lovett - Pontiac (1987)(RCA/Curb Records Digital Recording)

New Download Links
Speed
 kbps
 kbps
 kbps



Lyle Lovett - Pontiac (1987)(RCA/Curb Records Digital Recording)
1987 | Genre: Country | EAC RIP | FLAC+CUE+LOG+HQ-Covers(400Dpi) | 210Mb

Here’s another of my all time (audiophile) favourites.

PONTIAC is a wonderful example of how multi-talented an individual Lyle Lovett is. Beginning with the charming "If I Had a Boat," PONTIAC takes a listener on a journey through the many different song styles, all of which Lovett is a master of. Lovett plumbs the depths of a man's soul on the noir tales of "L.A.County" and "Pontiac" and then just as easily creates a sense of fun and exasperation on "Give Back my Heart" and "She's No Lady." PONTIAC captures a master songwriter at the top of his game with haunting lyrics and memorable tunes. Shifting easily from Texas twangs to big band sounds, Lovett creates a sound that encapsulates the true range of the what is known as "country," and he does it better than most.

I hope you will love it as much as I do.

Tracklist:

01. If I Had A Boat
02. Give Back My Heart
03. I Loved You Yesterday
04. Walk Through The Bottomland
05. L.A. County
06. She's No Lady
07. M-O-N-E-Y
08. Black And Blue
09. Simple Song
10. Pontiac
11. She's Hot To Go

EAC LOG CD1
Exact Audio Copy V0.99 prebeta 4 from 23. January 2008

EAC extraction logfile from 5. April 2009, 15:03

Lyle Lovett / Pontiac

Used drive : _NEC DVD_RW ND-3520A Adapter: 1 ID: 1

Read mode : Secure
Utilize accurate stream : Yes
Defeat audio cache : No
Make use of C2 pointers : Yes

Read offset correction : 48
Overread into Lead-In and Lead-Out : No
Fill up missing offset samples with silence : Yes
Delete leading and trailing silent blocks : No
Null samples used in CRC calculations : No
Used interface : Native Win32 interface for Win NT & 2000

Used output format : Internal WAV Routines
Sample format : 44.100 Hz; 16 Bit; Stereo TOC of the extracted CD

Track | Start | Length | Start sector | End sector
---------------------------------------------------------
1 | 0:00.00 | 3:09.25 | 0 | 14199
2 | 3:09.25 | 3:02.67 | 14200 | 27916
3 | 6:12.17 | 2:59.23 | 27917 | 41364
4 | 9:11.40 | 4:13.12 | 41365 | 60351
5 | 13:24.52 | 3:19.63 | 60352 | 75339
6 | 16:44.40 | 3:15.12 | 75340 | 89976
7 | 19:59.52 | 3:17.43 | 89977 | 104794
8 | 23:17.20 | 4:00.17 | 104795 | 122811
9 | 27:17.37 | 3:20.18 | 122812 | 137829
10 | 30:37.55 | 2:25.62 | 137830 | 148766
11 | 33:03.42 | 2:33.63 | 148767 | 160304 Range status and errors

Selected range

Filename G:AVAXHOMELyle Lovett - Pontiac (1987)(Curb Records)Lyle Lovett - Pontiac.wav

Peak level 94.3 %
Range quality 99.9 %
Copy CRC ED9BBFB2
Copy OK

No errors occurred


AccurateRip summary

Track 1 not present in database
Track 2 not present in database
Track 3 not present in database
Track 4 not present in database
Track 5 not present in database
Track 6 not present in database
Track 7 not present in database
Track 8 not present in database
Track 9 not present in database
Track 10 not present in database
Track 11 not present in database

None of the tracks are present in the AccurateRip database

End of status report

RIPPED BY JANWAL46 FROM ORIGINAL AND GENUINE MATERIAL


RS Links:




Miami Revealed Recording 2016 | Lyle Lovett Natural Forces | Recording Studio Suite | The Last Ship Original Broadway Cast Recording | A Small Budget Recording Studio | Curb Your Enthusiasm 8 | The Lion King Original Broadway Cast Recording | Lyle Lovett I Love Everybody | Recording Software Is Safe 1 | The Recording Revolution
Lyle Lovett - Pontiac (1987)(RCA/Curb Records Digital Recording) Torrent Download with keygen, crack, serial, dvdrip, hdrip, HD, 720p, 1024p, 2016, 2015