2.BölümMentally Divergent | [BangBros18 com BangBros com] Tiffany Watson - Tiffany Squirts on Her Step Bro.. | Bunty I Love You

Genius Within: The Inner Life of Glenn Gould (2009)

New Download Links
Speed
 kbps
 kbps
 kbps
http://i60.fastpic.ru/big/2015/1020/2b/1d0971d4615568fe40f7306285517a2b.jpg
Genius Within: The Inner Life of Glenn Gould (2009)
Documentary | Bluray-rip 720p | Audio: English | Run time: 114 mins | 4.88 GB
AVC, MKV 1280x720 (16:9) 29.97fps, 4488kbps | DTS, 48000Hz, 6ch, 1510kbps

An enigmatic musical poet, world-renowned pianist Glenn Gould continues to captivate twenty-seven years after his untimely death. His inimitable music and writing reveal and insightful world-view that we are still unravelling - his complex recording technologies, including overdubbing, was unprecedented. Though there have been many documentaries about Gould, most are distracted by his eccentricities, focusing on the pills, gloves, and scarves while missing the man and message behind the music. Genius Within: The Inner Life of Glenn Gould pierces through the myths, revealing the man beneath the icon.• Genius Within: The Inner Life of Glenn Gould weaves together an unprecedented array of never before seen footage of Gould, photographs and excerpts from his private home recordings and diaries plus personal interviews with Goulds most intimate friends and lovers, some who have never spoken about him publicly before, to reconstruct his thoughts on music, art, society, love, and life.
• In our current media saturated world, where information trumps knowledge, theres a profound need for someone who cuts through the static and speaks to us with a clear, candid, and timeless tone. That is one of Glenn Goulds most profound gifts.
Bonus:
• Deleted Scenes and Interviews (1080i, 16:13 total): Here youll find additional reminiscences and thoughts by Cornelia Foss, Lorne Tulk, Ray Roberts, and Kevin Bazzana.
• Trailers
Screeshots
http://i68.fastpic.ru/big/2015/1020/de/7a3b06031781861538197042239657de.jpg

Video
ID : 1
Format : AVC
Format/Info : Advanced Video Codec
Format profile : [email protected]
Format settings, CABAC : Yes
Format settings, ReFrames : 3 frames
Codec ID : V_MPEG4/ISO/AVC
Duration : 1h 54mn
Bit rate mode : Variable
Bit rate : 4 488 Kbps
Maximum bit rate : 25.0 Mbps
Width : 1 280 pixels
Height : 720 pixels
Display aspect ratio : 16:9
Frame rate : 29.970 fps
Color space : YUV
Chroma subsampling : 4:2:0
Bit depth : 8 bits
Scan type : Progressive
Bits/(Pixel*Frame) : 0.162
Stream size : 3.58 GiB (73%)
Writing library : x264 core 142 r2479 dd79a61
Encoding settings : cabac=1 / ref=3 / deblock=1:0:0 / analyse=0x3:0x113 / me=hex / subme=7 / psy=1 / psy_rd=1.00:0.00 / mixed_ref=1 / me_range=16 / chroma_me=1 / trellis=1 / 8x8dct=1 / cqm=0 / deadzone=21,11 / fast_pskip=1 / chroma_qp_offset=-2 / threads=12 / lookahead_threads=2 / sliced_threads=0 / nr=0 / decimate=1 / interlaced=0 / bluray_compat=0 / constrained_intra=0 / bframes=3 / b_pyramid=0 / b_adapt=1 / b_bias=0 / direct=1 / weightb=1 / open_gop=0 / weightp=2 / keyint=300 / keyint_min=30 / scenecut=40 / intra_refresh=0 / rc_lookahead=40 / rc=crf / mbtree=1 / crf=18.0 / qcomp=0.60 / qpmin=0 / qpmax=69 / qpstep=4 / vbv_maxrate=25000 / vbv_bufsize=25000 / crf_max=0.0 / nal_hrd=vbr / filler=0 / ip_ratio=1.40 / aq=1:1.00
Audio
ID : 2
Format : DTS
Format/Info : Digital Theater Systems
Codec ID : A_DTS
Duration : 1h 54mn
Bit rate mode : Constant
Bit rate : 1 510 Kbps
Channel(s) : 6 channels
Channel positions : Front: L C R, Side: L R, LFE
Sampling rate : 48.0 KHz
Bit depth : 24 bits
Compression mode : Lossy
Stream size : 1.20 GiB (25%)
Language : English
Menu
00:00:00.000 : en:00:00:00.000
00:09:40.480 : en:00:09:40.480
00:17:03.456 : en:00:17:03.456
00:27:33.585 : en:00:27:33.585
00:35:39.371 : en:00:35:39.371
00:48:36.380 : en:00:48:36.380
00:55:27.991 : en:00:55:27.991
01:03:02.912 : en:01:03:02.912
01:09:15.551 : en:01:09:15.551
01:23:02.945 : en:01:23:02.945
01:32:33.181 : en:01:32:33.181
01:44:18.853 : en:01:44:18.853
Download link:
Links are Interchangeable - Single Extraction - Premium is support resumable


Glenn Gould Remastered The Complete Columbia Album Collection | Gould Glenn | The Man Who Knew Infinity A Life Of The Genius Ramanujan | Glenn Gould | Glenn Gould Films | Life 2009 Avi | Life In One Day 2009 | Glenn Gould Au Del | Gould Wonderful Life | Glenn Gould Radio
Genius Within: The Inner Life of Glenn Gould (2009) Torrent Download with keygen, crack, serial, dvdrip, hdrip, HD, 720p, 1024p, 2016, 2015